<?xml version="1.0" standalone="no"?>
<!DOCTYPE svg PUBLIC "-//W3C//DTD SVG 1.1//EN" "http://www.w3.org/Graphics/SVG/1.1/DTD/svg11.dtd" >
<svg>
<metadata>
Created by FontForge 20090622 at Sat Aug  8 07:09:49 2015
 By deploy user
Created by svo with FontForge 2.0 (http://fontforge.sf.net)

Use font size 15 on Windows
Use font size 20 on Mac/Linux 
</metadata>
<defs>
<font id="Glass_TTY_VT220" horiz-adv-x="500" >
  <font-face 
    font-family="Glass TTY VT220"
    font-weight="500"
    font-stretch="normal"
    units-per-em="1000"
    panose-1="2 0 6 9 0 0 0 0 0 0"
    ascent="800"
    descent="-200"
    x-height="500"
    cap-height="700"
    bbox="0 -150 400 800"
    underline-thickness="19"
    underline-position="-99"
    unicode-range="U+0001-U+0451"
  />
<missing-glyph 
d="M33 0v666h265v-666h-265zM66 33h199v600h-199v-600z" />
    <glyph glyph-name=".notdef" 
d="M33 0v666h265v-666h-265zM66 33h199v600h-199v-600z" />
    <glyph glyph-name="uni0000" 
d="M150 75q0 16 9.5 20.5t40.5 4.5t40.5 -4.5t9.5 -20.5t-9.5 -20.5t-40.5 -4.5t-40.5 4.5t-9.5 20.5zM150 275q0 16 9.5 20.5t40.5 4.5t40.5 -4.5t9.5 -20.5t-9.5 -20.5t-40.5 -4.5t-40.5 4.5t-9.5 20.5zM150 375q0 16 9.5 20.5t40.5 4.5t40.5 -4.5t9.5 -20.5t-9.5 -20.5
t-40.5 -4.5t-40.5 4.5t-9.5 20.5zM50 475q0 17 13 21t62 4t62 -4t13 -21t-13 -21t-62 -4t-62 4t-13 21zM300 575q0 16 9.5 20.5t40.5 4.5t40.5 -4.5t9.5 -20.5t-9.5 -20.5t-40.5 -4.5t-40.5 4.5t-9.5 20.5zM0 575q0 16 9.5 20.5t40.5 4.5t40.5 -4.5t9.5 -20.5t-9.5 -20.5
t-40.5 -4.5t-40.5 4.5t-9.5 20.5zM50 675q0 16 15 20q19 5 135 5q129 0 143 -9q7 -4 7 -16q0 -16 -15 -20q-19 -5 -135 -5q-129 0 -143 9q-7 4 -7 16z" />
    <glyph glyph-name="uni0000" 
d="M150 75q0 16 9.5 20.5t40.5 4.5t40.5 -4.5t9.5 -20.5t-9.5 -20.5t-40.5 -4.5t-40.5 4.5t-9.5 20.5zM150 275q0 16 9.5 20.5t40.5 4.5t40.5 -4.5t9.5 -20.5t-9.5 -20.5t-40.5 -4.5t-40.5 4.5t-9.5 20.5zM150 375q0 16 9.5 20.5t40.5 4.5t40.5 -4.5t9.5 -20.5t-9.5 -20.5
t-40.5 -4.5t-40.5 4.5t-9.5 20.5zM50 475q0 17 13 21t62 4t62 -4t13 -21t-13 -21t-62 -4t-62 4t-13 21zM300 575q0 16 9.5 20.5t40.5 4.5t40.5 -4.5t9.5 -20.5t-9.5 -20.5t-40.5 -4.5t-40.5 4.5t-9.5 20.5zM0 575q0 16 9.5 20.5t40.5 4.5t40.5 -4.5t9.5 -20.5t-9.5 -20.5
t-40.5 -4.5t-40.5 4.5t-9.5 20.5zM50 675q0 16 15 20q19 5 135 5q129 0 143 -9q7 -4 7 -16q0 -16 -15 -20q-19 -5 -135 -5q-129 0 -143 9q-7 4 -7 16z" />
    <glyph glyph-name="uni000D" unicode="&#xd;" 
d="M150 -125q0 16 9.5 20.5t40.5 4.5t40.5 -4.5t9.5 -20.5t-9.5 -20.5t-40.5 -4.5t-40.5 4.5t-9.5 20.5zM150 -25q0 16 9.5 20.5t40.5 4.5t40.5 -4.5t9.5 -20.5t-9.5 -20.5t-40.5 -4.5t-40.5 4.5t-9.5 20.5zM150 75q0 16 9.5 20.5t40.5 4.5t40.5 -4.5t9.5 -20.5t-9.5 -20.5
t-40.5 -4.5t-40.5 4.5t-9.5 20.5zM150 175q0 16 9.5 20.5t40.5 4.5t40.5 -4.5t9.5 -20.5t-9.5 -20.5t-40.5 -4.5t-40.5 4.5t-9.5 20.5zM150 275q0 16 9.5 20.5t40.5 4.5t40.5 -4.5t9.5 -20.5t-9.5 -20.5t-40.5 -4.5t-40.5 4.5t-9.5 20.5zM150 375q0 9 2.5 13.5t17 7.5
t36.5 3.5t69 0.5t69 -0.5t36.5 -3.5t17 -7.5t2.5 -13.5t-2.5 -13.5t-17 -7.5t-36.5 -3.5t-69 -0.5t-69 0.5t-36.5 3.5t-17 7.5t-2.5 13.5z" />
    <glyph glyph-name="uni0001" 
d="M150 75q0 16 9.5 20.5t40.5 4.5t40.5 -4.5t9.5 -20.5t-9.5 -20.5t-40.5 -4.5t-40.5 4.5t-9.5 20.5zM100 175q0 17 16 21t84 4t84 -4t16 -21t-16 -21t-84 -4t-84 4t-16 21zM50 275q0 16 15 20q19 5 135 5q129 0 143 -9q7 -4 7 -16q0 -16 -15 -20q-19 -5 -135 -5
q-129 0 -143 9q-7 4 -7 16zM0 375q0 15 15 19q24 6 185 6q173 0 191 -9q9 -4 9 -16q0 -15 -15 -19q-24 -6 -185 -6q-173 0 -191 9q-9 4 -9 16zM50 475q0 16 15 20q19 5 135 5q129 0 143 -9q7 -4 7 -16q0 -16 -15 -20q-19 -5 -135 -5q-129 0 -143 9q-7 4 -7 16zM100 575
q0 17 16 21t84 4t84 -4t16 -21t-16 -21t-84 -4t-84 4t-16 21zM150 675q0 16 9.5 20.5t40.5 4.5t40.5 -4.5t9.5 -20.5t-9.5 -20.5t-40.5 -4.5t-40.5 4.5t-9.5 20.5z" />
    <glyph glyph-name="uni0002" 
d="M300 75q0 16 9.5 20.5t40.5 4.5t40.5 -4.5t9.5 -20.5t-9.5 -20.5t-40.5 -4.5t-40.5 4.5t-9.5 20.5zM150 75q0 16 9.5 20.5t40.5 4.5t40.5 -4.5t9.5 -20.5t-9.5 -20.5t-40.5 -4.5t-40.5 4.5t-9.5 20.5zM0 75q0 16 9.5 20.5t40.5 4.5t40.5 -4.5t9.5 -20.5t-9.5 -20.5
t-40.5 -4.5t-40.5 4.5t-9.5 20.5zM250 175q0 16 9.5 20.5t40.5 4.5t40.5 -4.5t9.5 -20.5t-9.5 -20.5t-40.5 -4.5t-40.5 4.5t-9.5 20.5zM50 175q0 16 9.5 20.5t40.5 4.5t40.5 -4.5t9.5 -20.5t-9.5 -20.5t-40.5 -4.5t-40.5 4.5t-9.5 20.5zM300 275q0 16 9.5 20.5t40.5 4.5
t40.5 -4.5t9.5 -20.5t-9.5 -20.5t-40.5 -4.5t-40.5 4.5t-9.5 20.5zM150 275q0 16 9.5 20.5t40.5 4.5t40.5 -4.5t9.5 -20.5t-9.5 -20.5t-40.5 -4.5t-40.5 4.5t-9.5 20.5zM0 275q0 16 9.5 20.5t40.5 4.5t40.5 -4.5t9.5 -20.5t-9.5 -20.5t-40.5 -4.5t-40.5 4.5t-9.5 20.5z
M250 375q0 16 9.5 20.5t40.5 4.5t40.5 -4.5t9.5 -20.5t-9.5 -20.5t-40.5 -4.5t-40.5 4.5t-9.5 20.5zM50 375q0 16 9.5 20.5t40.5 4.5t40.5 -4.5t9.5 -20.5t-9.5 -20.5t-40.5 -4.5t-40.5 4.5t-9.5 20.5zM300 475q0 16 9.5 20.5t40.5 4.5t40.5 -4.5t9.5 -20.5t-9.5 -20.5
t-40.5 -4.5t-40.5 4.5t-9.5 20.5zM150 475q0 16 9.5 20.5t40.5 4.5t40.5 -4.5t9.5 -20.5t-9.5 -20.5t-40.5 -4.5t-40.5 4.5t-9.5 20.5zM0 475q0 16 9.5 20.5t40.5 4.5t40.5 -4.5t9.5 -20.5t-9.5 -20.5t-40.5 -4.5t-40.5 4.5t-9.5 20.5zM250 575q0 16 9.5 20.5t40.5 4.5
t40.5 -4.5t9.5 -20.5t-9.5 -20.5t-40.5 -4.5t-40.5 4.5t-9.5 20.5zM50 575q0 16 9.5 20.5t40.5 4.5t40.5 -4.5t9.5 -20.5t-9.5 -20.5t-40.5 -4.5t-40.5 4.5t-9.5 20.5zM300 675q0 16 9.5 20.5t40.5 4.5t40.5 -4.5t9.5 -20.5t-9.5 -20.5t-40.5 -4.5t-40.5 4.5t-9.5 20.5z
M150 675q0 16 9.5 20.5t40.5 4.5t40.5 -4.5t9.5 -20.5t-9.5 -20.5t-40.5 -4.5t-40.5 4.5t-9.5 20.5zM0 675q0 16 9.5 20.5t40.5 4.5t40.5 -4.5t9.5 -20.5t-9.5 -20.5t-40.5 -4.5t-40.5 4.5t-9.5 20.5z" />
    <glyph glyph-name="uni0003" 
d="M200 -125q0 16 9.5 20.5t40.5 4.5t40.5 -4.5t9.5 -20.5t-9.5 -20.5t-40.5 -4.5t-40.5 4.5t-9.5 20.5zM200 -25q0 16 9.5 20.5t40.5 4.5t40.5 -4.5t9.5 -20.5t-9.5 -20.5t-40.5 -4.5t-40.5 4.5t-9.5 20.5zM200 75q0 16 9.5 20.5t40.5 4.5t40.5 -4.5t9.5 -20.5t-9.5 -20.5
t-40.5 -4.5t-40.5 4.5t-9.5 20.5zM200 175q0 16 9.5 20.5t40.5 4.5t40.5 -4.5t9.5 -20.5t-9.5 -20.5t-40.5 -4.5t-40.5 4.5t-9.5 20.5zM0 275q0 15 15 19q24 6 185 6q173 0 191 -9q9 -4 9 -16q0 -15 -15 -19q-24 -6 -185 -6q-173 0 -191 9q-9 4 -9 16zM150 375
q0 16 9.5 20.5t40.5 4.5t40.5 -4.5t9.5 -20.5t-9.5 -20.5t-40.5 -4.5t-40.5 4.5t-9.5 20.5zM0 375q0 16 9.5 20.5t40.5 4.5t40.5 -4.5t9.5 -20.5t-9.5 -20.5t-40.5 -4.5t-40.5 4.5t-9.5 20.5zM0 475q0 9 2.5 13.5t17 7.5t36.5 3.5t69 0.5t69 -0.5t36.5 -3.5t17 -7.5
t2.5 -13.5t-2.5 -13.5t-17 -7.5t-36.5 -3.5t-69 -0.5t-69 0.5t-36.5 3.5t-17 7.5t-2.5 13.5zM150 575q0 16 9.5 20.5t40.5 4.5t40.5 -4.5t9.5 -20.5t-9.5 -20.5t-40.5 -4.5t-40.5 4.5t-9.5 20.5zM0 575q0 16 9.5 20.5t40.5 4.5t40.5 -4.5t9.5 -20.5t-9.5 -20.5t-40.5 -4.5
t-40.5 4.5t-9.5 20.5zM150 675q0 16 9.5 20.5t40.5 4.5t40.5 -4.5t9.5 -20.5t-9.5 -20.5t-40.5 -4.5t-40.5 4.5t-9.5 20.5zM0 675q0 16 9.5 20.5t40.5 4.5t40.5 -4.5t9.5 -20.5t-9.5 -20.5t-40.5 -4.5t-40.5 4.5t-9.5 20.5z" />
    <glyph glyph-name="uni0004" 
d="M150 -125q0 16 9.5 20.5t40.5 4.5t40.5 -4.5t9.5 -20.5t-9.5 -20.5t-40.5 -4.5t-40.5 4.5t-9.5 20.5zM150 -25q0 16 9.5 20.5t40.5 4.5t40.5 -4.5t9.5 -20.5t-9.5 -20.5t-40.5 -4.5t-40.5 4.5t-9.5 20.5zM150 75q0 17 16 21t84 4t84 -4t16 -21t-16 -21t-84 -4t-84 4
t-16 21zM150 175q0 16 9.5 20.5t40.5 4.5t40.5 -4.5t9.5 -20.5t-9.5 -20.5t-40.5 -4.5t-40.5 4.5t-9.5 20.5zM150 275q0 9 2.5 13.5t17 7.5t36.5 3.5t69 0.5t69 -0.5t36.5 -3.5t17 -7.5t2.5 -13.5t-2.5 -13.5t-17 -7.5t-36.5 -3.5t-69 -0.5t-69 0.5t-36.5 3.5t-17 7.5
t-2.5 13.5zM0 275q0 16 9.5 20.5t40.5 4.5t40.5 -4.5t9.5 -20.5t-9.5 -20.5t-40.5 -4.5t-40.5 4.5t-9.5 20.5zM0 375q0 16 9.5 20.5t40.5 4.5t40.5 -4.5t9.5 -20.5t-9.5 -20.5t-40.5 -4.5t-40.5 4.5t-9.5 20.5zM0 475q0 17 16 21t84 4t84 -4t16 -21t-16 -21t-84 -4t-84 4
t-16 21zM0 575q0 16 9.5 20.5t40.5 4.5t40.5 -4.5t9.5 -20.5t-9.5 -20.5t-40.5 -4.5t-40.5 4.5t-9.5 20.5zM0 675q0 9 2.5 13.5t17 7.5t36.5 3.5t69 0.5t69 -0.5t36.5 -3.5t17 -7.5t2.5 -13.5t-2.5 -13.5t-17 -7.5t-36.5 -3.5t-69 -0.5t-69 0.5t-36.5 3.5t-17 7.5t-2.5 13.5
z" />
    <glyph glyph-name="uni0005" 
d="M300 -125q0 16 9.5 20.5t40.5 4.5t40.5 -4.5t9.5 -20.5t-9.5 -20.5t-40.5 -4.5t-40.5 4.5t-9.5 20.5zM150 -125q0 16 9.5 20.5t40.5 4.5t40.5 -4.5t9.5 -20.5t-9.5 -20.5t-40.5 -4.5t-40.5 4.5t-9.5 20.5zM300 -25q0 16 9.5 20.5t40.5 4.5t40.5 -4.5t9.5 -20.5
t-9.5 -20.5t-40.5 -4.5t-40.5 4.5t-9.5 20.5zM150 -25q0 16 9.5 20.5t40.5 4.5t40.5 -4.5t9.5 -20.5t-9.5 -20.5t-40.5 -4.5t-40.5 4.5t-9.5 20.5zM150 75q0 17 16 21t84 4t84 -4t16 -21t-16 -21t-84 -4t-84 4t-16 21zM300 175q0 16 9.5 20.5t40.5 4.5t40.5 -4.5t9.5 -20.5
t-9.5 -20.5t-40.5 -4.5t-40.5 4.5t-9.5 20.5zM150 175q0 16 9.5 20.5t40.5 4.5t40.5 -4.5t9.5 -20.5t-9.5 -20.5t-40.5 -4.5t-40.5 4.5t-9.5 20.5zM50 275q0 16 15 20q19 5 135 5q129 0 143 -9q7 -4 7 -16q0 -16 -15 -20q-19 -5 -135 -5q-129 0 -143 9q-7 4 -7 16zM0 375
q0 16 9.5 20.5t40.5 4.5t40.5 -4.5t9.5 -20.5t-9.5 -20.5t-40.5 -4.5t-40.5 4.5t-9.5 20.5zM0 475q0 16 9.5 20.5t40.5 4.5t40.5 -4.5t9.5 -20.5t-9.5 -20.5t-40.5 -4.5t-40.5 4.5t-9.5 20.5zM0 575q0 16 9.5 20.5t40.5 4.5t40.5 -4.5t9.5 -20.5t-9.5 -20.5t-40.5 -4.5
t-40.5 4.5t-9.5 20.5zM50 675q0 17 16 21t84 4t84 -4t16 -21t-16 -21t-84 -4t-84 4t-16 21z" />
    <glyph glyph-name="uni0006" 
d="M150 -125q0 16 9.5 20.5t40.5 4.5t40.5 -4.5t9.5 -20.5t-9.5 -20.5t-40.5 -4.5t-40.5 4.5t-9.5 20.5zM150 -25q0 16 9.5 20.5t40.5 4.5t40.5 -4.5t9.5 -20.5t-9.5 -20.5t-40.5 -4.5t-40.5 4.5t-9.5 20.5zM150 75q0 17 16 21t84 4t84 -4t16 -21t-16 -21t-84 -4t-84 4
t-16 21zM150 175q0 16 9.5 20.5t40.5 4.5t40.5 -4.5t9.5 -20.5t-9.5 -20.5t-40.5 -4.5t-40.5 4.5t-9.5 20.5zM0 275q0 15 15 19q24 6 185 6q173 0 191 -9q9 -4 9 -16q0 -15 -15 -19q-24 -6 -185 -6q-173 0 -191 9q-9 4 -9 16zM0 375q0 16 9.5 20.5t40.5 4.5t40.5 -4.5
t9.5 -20.5t-9.5 -20.5t-40.5 -4.5t-40.5 4.5t-9.5 20.5zM0 475q0 16 9.5 20.5t40.5 4.5t40.5 -4.5t9.5 -20.5t-9.5 -20.5t-40.5 -4.5t-40.5 4.5t-9.5 20.5zM0 575q0 16 9.5 20.5t40.5 4.5t40.5 -4.5t9.5 -20.5t-9.5 -20.5t-40.5 -4.5t-40.5 4.5t-9.5 20.5zM0 675
q0 16 9.5 20.5t40.5 4.5t40.5 -4.5t9.5 -20.5t-9.5 -20.5t-40.5 -4.5t-40.5 4.5t-9.5 20.5z" />
    <glyph glyph-name="uni0007" 
d="M100 475q0 17 16 21t84 4t84 -4t16 -21t-16 -21t-84 -4t-84 4t-16 21zM250 575q0 16 9.5 20.5t40.5 4.5t40.5 -4.5t9.5 -20.5t-9.5 -20.5t-40.5 -4.5t-40.5 4.5t-9.5 20.5zM50 575q0 16 9.5 20.5t40.5 4.5t40.5 -4.5t9.5 -20.5t-9.5 -20.5t-40.5 -4.5t-40.5 4.5
t-9.5 20.5zM100 675q0 17 16 21t84 4t84 -4t16 -21t-16 -21t-84 -4t-84 4t-16 21z" />
    <glyph glyph-name="uni0008" 
d="M0 75q0 15 15 19q24 6 185 6q173 0 191 -9q9 -4 9 -16q0 -15 -15 -19q-24 -6 -185 -6q-173 0 -191 9q-9 4 -9 16zM150 175q0 16 9.5 20.5t40.5 4.5t40.5 -4.5t9.5 -20.5t-9.5 -20.5t-40.5 -4.5t-40.5 4.5t-9.5 20.5zM150 275q0 16 9.5 20.5t40.5 4.5t40.5 -4.5t9.5 -20.5
t-9.5 -20.5t-40.5 -4.5t-40.5 4.5t-9.5 20.5zM0 375q0 15 15 19q24 6 185 6q173 0 191 -9q9 -4 9 -16q0 -15 -15 -19q-24 -6 -185 -6q-173 0 -191 9q-9 4 -9 16zM150 475q0 16 9.5 20.5t40.5 4.5t40.5 -4.5t9.5 -20.5t-9.5 -20.5t-40.5 -4.5t-40.5 4.5t-9.5 20.5zM150 575
q0 16 9.5 20.5t40.5 4.5t40.5 -4.5t9.5 -20.5t-9.5 -20.5t-40.5 -4.5t-40.5 4.5t-9.5 20.5z" />
    <glyph glyph-name="uni0009" unicode="&#x9;" 
d="M150 -125q0 9 2.5 13.5t17 7.5t36.5 3.5t69 0.5t69 -0.5t36.5 -3.5t17 -7.5t2.5 -13.5t-2.5 -13.5t-17 -7.5t-36.5 -3.5t-69 -0.5t-69 0.5t-36.5 3.5t-17 7.5t-2.5 13.5zM150 -25q0 16 9.5 20.5t40.5 4.5t40.5 -4.5t9.5 -20.5t-9.5 -20.5t-40.5 -4.5t-40.5 4.5t-9.5 20.5
zM150 75q0 16 9.5 20.5t40.5 4.5t40.5 -4.5t9.5 -20.5t-9.5 -20.5t-40.5 -4.5t-40.5 4.5t-9.5 20.5zM150 175q0 16 9.5 20.5t40.5 4.5t40.5 -4.5t9.5 -20.5t-9.5 -20.5t-40.5 -4.5t-40.5 4.5t-9.5 20.5zM150 275q0 17 13 21t62 4t62 -4t13 -21t-13 -21t-62 -4t-62 4t-13 21z
M0 275q0 16 9.5 20.5t40.5 4.5t40.5 -4.5t9.5 -20.5t-9.5 -20.5t-40.5 -4.5t-40.5 4.5t-9.5 20.5zM150 375q0 17 13 21t62 4t62 -4t13 -21t-13 -21t-62 -4t-62 4t-13 21zM0 375q0 16 9.5 20.5t40.5 4.5t40.5 -4.5t9.5 -20.5t-9.5 -20.5t-40.5 -4.5t-40.5 4.5t-9.5 20.5z
M0 475q0 16 15 20q19 5 135 5q129 0 143 -9q7 -4 7 -16q0 -16 -15 -20q-19 -5 -135 -5q-129 0 -143 9q-7 4 -7 16zM200 575q0 16 9.5 20.5t40.5 4.5t40.5 -4.5t9.5 -20.5t-9.5 -20.5t-40.5 -4.5t-40.5 4.5t-9.5 20.5zM0 575q0 17 13 21t62 4t62 -4t13 -21t-13 -21t-62 -4
t-62 4t-13 21zM200 675q0 16 9.5 20.5t40.5 4.5t40.5 -4.5t9.5 -20.5t-9.5 -20.5t-40.5 -4.5t-40.5 4.5t-9.5 20.5zM0 675q0 16 9.5 20.5t40.5 4.5t40.5 -4.5t9.5 -20.5t-9.5 -20.5t-40.5 -4.5t-40.5 4.5t-9.5 20.5z" />
    <glyph glyph-name="uni000A" unicode="&#xa;" 
d="M200 -125q0 16 9.5 20.5t40.5 4.5t40.5 -4.5t9.5 -20.5t-9.5 -20.5t-40.5 -4.5t-40.5 4.5t-9.5 20.5zM200 -25q0 16 9.5 20.5t40.5 4.5t40.5 -4.5t9.5 -20.5t-9.5 -20.5t-40.5 -4.5t-40.5 4.5t-9.5 20.5zM200 75q0 16 9.5 20.5t40.5 4.5t40.5 -4.5t9.5 -20.5t-9.5 -20.5
t-40.5 -4.5t-40.5 4.5t-9.5 20.5zM200 175q0 16 9.5 20.5t40.5 4.5t40.5 -4.5t9.5 -20.5t-9.5 -20.5t-40.5 -4.5t-40.5 4.5t-9.5 20.5zM100 275q0 16 15 20q19 5 135 5q129 0 143 -9q7 -4 7 -16q0 -16 -15 -20q-19 -5 -135 -5q-129 0 -143 9q-7 4 -7 16zM50 375q0 17 16 21
t84 4t84 -4t16 -21t-16 -21t-84 -4t-84 4t-16 21zM50 475q0 17 16 21t84 4t84 -4t16 -21t-16 -21t-84 -4t-84 4t-16 21zM200 575q0 16 9.5 20.5t40.5 4.5t40.5 -4.5t9.5 -20.5t-9.5 -20.5t-40.5 -4.5t-40.5 4.5t-9.5 20.5zM0 575q0 16 9.5 20.5t40.5 4.5t40.5 -4.5
t9.5 -20.5t-9.5 -20.5t-40.5 -4.5t-40.5 4.5t-9.5 20.5zM200 675q0 16 9.5 20.5t40.5 4.5t40.5 -4.5t9.5 -20.5t-9.5 -20.5t-40.5 -4.5t-40.5 4.5t-9.5 20.5zM0 675q0 16 9.5 20.5t40.5 4.5t40.5 -4.5t9.5 -20.5t-9.5 -20.5t-40.5 -4.5t-40.5 4.5t-9.5 20.5z" />
    <glyph glyph-name="uni000B" 
d="M0 375q0 9 2.5 13.5t17 7.5t36.5 3.5t69 0.5t69 -0.5t36.5 -3.5t17 -7.5t2.5 -13.5t-2.5 -13.5t-17 -7.5t-36.5 -3.5t-69 -0.5t-69 0.5t-36.5 3.5t-17 7.5t-2.5 13.5zM150 475q0 16 9.5 20.5t40.5 4.5t40.5 -4.5t9.5 -20.5t-9.5 -20.5t-40.5 -4.5t-40.5 4.5t-9.5 20.5z
M150 575q0 16 9.5 20.5t40.5 4.5t40.5 -4.5t9.5 -20.5t-9.5 -20.5t-40.5 -4.5t-40.5 4.5t-9.5 20.5zM150 675q0 16 9.5 20.5t40.5 4.5t40.5 -4.5t9.5 -20.5t-9.5 -20.5t-40.5 -4.5t-40.5 4.5t-9.5 20.5zM150 775q0 16 9.5 20.5t40.5 4.5t40.5 -4.5t9.5 -20.5t-9.5 -20.5
t-40.5 -4.5t-40.5 4.5t-9.5 20.5z" />
    <glyph glyph-name="uni000C" 
d="M150 -125q0 16 9.5 20.5t40.5 4.5t40.5 -4.5t9.5 -20.5t-9.5 -20.5t-40.5 -4.5t-40.5 4.5t-9.5 20.5zM150 -25q0 16 9.5 20.5t40.5 4.5t40.5 -4.5t9.5 -20.5t-9.5 -20.5t-40.5 -4.5t-40.5 4.5t-9.5 20.5zM150 75q0 16 9.5 20.5t40.5 4.5t40.5 -4.5t9.5 -20.5t-9.5 -20.5
t-40.5 -4.5t-40.5 4.5t-9.5 20.5zM150 175q0 16 9.5 20.5t40.5 4.5t40.5 -4.5t9.5 -20.5t-9.5 -20.5t-40.5 -4.5t-40.5 4.5t-9.5 20.5zM150 275q0 16 9.5 20.5t40.5 4.5t40.5 -4.5t9.5 -20.5t-9.5 -20.5t-40.5 -4.5t-40.5 4.5t-9.5 20.5zM0 375q0 9 2.5 13.5t17 7.5
t36.5 3.5t69 0.5t69 -0.5t36.5 -3.5t17 -7.5t2.5 -13.5t-2.5 -13.5t-17 -7.5t-36.5 -3.5t-69 -0.5t-69 0.5t-36.5 3.5t-17 7.5t-2.5 13.5z" />
    <glyph glyph-name="uni000E" 
d="M150 375q0 9 2.5 13.5t17 7.5t36.5 3.5t69 0.5t69 -0.5t36.5 -3.5t17 -7.5t2.5 -13.5t-2.5 -13.5t-17 -7.5t-36.5 -3.5t-69 -0.5t-69 0.5t-36.5 3.5t-17 7.5t-2.5 13.5zM150 475q0 16 9.5 20.5t40.5 4.5t40.5 -4.5t9.5 -20.5t-9.5 -20.5t-40.5 -4.5t-40.5 4.5t-9.5 20.5z
M150 575q0 16 9.5 20.5t40.5 4.5t40.5 -4.5t9.5 -20.5t-9.5 -20.5t-40.5 -4.5t-40.5 4.5t-9.5 20.5zM150 675q0 16 9.5 20.5t40.5 4.5t40.5 -4.5t9.5 -20.5t-9.5 -20.5t-40.5 -4.5t-40.5 4.5t-9.5 20.5zM150 775q0 16 9.5 20.5t40.5 4.5t40.5 -4.5t9.5 -20.5t-9.5 -20.5
t-40.5 -4.5t-40.5 4.5t-9.5 20.5z" />
    <glyph glyph-name="uni000F" 
d="M150 -125q0 16 9.5 20.5t40.5 4.5t40.5 -4.5t9.5 -20.5t-9.5 -20.5t-40.5 -4.5t-40.5 4.5t-9.5 20.5zM150 -25q0 16 9.5 20.5t40.5 4.5t40.5 -4.5t9.5 -20.5t-9.5 -20.5t-40.5 -4.5t-40.5 4.5t-9.5 20.5zM150 75q0 16 9.5 20.5t40.5 4.5t40.5 -4.5t9.5 -20.5t-9.5 -20.5
t-40.5 -4.5t-40.5 4.5t-9.5 20.5zM150 175q0 16 9.5 20.5t40.5 4.5t40.5 -4.5t9.5 -20.5t-9.5 -20.5t-40.5 -4.5t-40.5 4.5t-9.5 20.5zM150 275q0 16 9.5 20.5t40.5 4.5t40.5 -4.5t9.5 -20.5t-9.5 -20.5t-40.5 -4.5t-40.5 4.5t-9.5 20.5zM0 375q0 15 15 19q24 6 185 6
q173 0 191 -9q9 -4 9 -16q0 -15 -15 -19q-24 -6 -185 -6q-173 0 -191 9q-9 4 -9 16zM150 475q0 16 9.5 20.5t40.5 4.5t40.5 -4.5t9.5 -20.5t-9.5 -20.5t-40.5 -4.5t-40.5 4.5t-9.5 20.5zM150 575q0 16 9.5 20.5t40.5 4.5t40.5 -4.5t9.5 -20.5t-9.5 -20.5t-40.5 -4.5
t-40.5 4.5t-9.5 20.5zM150 675q0 16 9.5 20.5t40.5 4.5t40.5 -4.5t9.5 -20.5t-9.5 -20.5t-40.5 -4.5t-40.5 4.5t-9.5 20.5zM150 775q0 16 9.5 20.5t40.5 4.5t40.5 -4.5t9.5 -20.5t-9.5 -20.5t-40.5 -4.5t-40.5 4.5t-9.5 20.5z" />
    <glyph glyph-name="uni0010" 
d="M0 775q0 15 15 19q24 6 185 6q173 0 191 -9q9 -4 9 -16q0 -15 -15 -19q-24 -6 -185 -6q-173 0 -191 9q-9 4 -9 16z" />
    <glyph glyph-name="uni0011" 
d="M0 575q0 15 15 19q24 6 185 6q173 0 191 -9q9 -4 9 -16q0 -15 -15 -19q-24 -6 -185 -6q-173 0 -191 9q-9 4 -9 16z" />
    <glyph glyph-name="uni0012" 
d="M0 375q0 15 15 19q24 6 185 6q173 0 191 -9q9 -4 9 -16q0 -15 -15 -19q-24 -6 -185 -6q-173 0 -191 9q-9 4 -9 16z" />
    <glyph glyph-name="uni0013" 
d="M0 175q0 15 15 19q24 6 185 6q173 0 191 -9q9 -4 9 -16q0 -15 -15 -19q-24 -6 -185 -6q-173 0 -191 9q-9 4 -9 16z" />
    <glyph glyph-name="uni0014" 
d="M0 -25q0 15 15 19q24 6 185 6q173 0 191 -9q9 -4 9 -16q0 -15 -15 -19q-24 -6 -185 -6q-173 0 -191 9q-9 4 -9 16z" />
    <glyph glyph-name="uni0015" 
d="M150 -125q0 16 9.5 20.5t40.5 4.5t40.5 -4.5t9.5 -20.5t-9.5 -20.5t-40.5 -4.5t-40.5 4.5t-9.5 20.5zM150 -25q0 16 9.5 20.5t40.5 4.5t40.5 -4.5t9.5 -20.5t-9.5 -20.5t-40.5 -4.5t-40.5 4.5t-9.5 20.5zM150 75q0 16 9.5 20.5t40.5 4.5t40.5 -4.5t9.5 -20.5t-9.5 -20.5
t-40.5 -4.5t-40.5 4.5t-9.5 20.5zM150 175q0 16 9.5 20.5t40.5 4.5t40.5 -4.5t9.5 -20.5t-9.5 -20.5t-40.5 -4.5t-40.5 4.5t-9.5 20.5zM150 275q0 16 9.5 20.5t40.5 4.5t40.5 -4.5t9.5 -20.5t-9.5 -20.5t-40.5 -4.5t-40.5 4.5t-9.5 20.5zM150 375q0 9 2.5 13.5t17 7.5
t36.5 3.5t69 0.5t69 -0.5t36.5 -3.5t17 -7.5t2.5 -13.5t-2.5 -13.5t-17 -7.5t-36.5 -3.5t-69 -0.5t-69 0.5t-36.5 3.5t-17 7.5t-2.5 13.5zM150 475q0 16 9.5 20.5t40.5 4.5t40.5 -4.5t9.5 -20.5t-9.5 -20.5t-40.5 -4.5t-40.5 4.5t-9.5 20.5zM150 575q0 16 9.5 20.5t40.5 4.5
t40.5 -4.5t9.5 -20.5t-9.5 -20.5t-40.5 -4.5t-40.5 4.5t-9.5 20.5zM150 675q0 16 9.5 20.5t40.5 4.5t40.5 -4.5t9.5 -20.5t-9.5 -20.5t-40.5 -4.5t-40.5 4.5t-9.5 20.5zM150 775q0 16 9.5 20.5t40.5 4.5t40.5 -4.5t9.5 -20.5t-9.5 -20.5t-40.5 -4.5t-40.5 4.5t-9.5 20.5z
" />
    <glyph glyph-name="uni0016" 
d="M150 -125q0 16 9.5 20.5t40.5 4.5t40.5 -4.5t9.5 -20.5t-9.5 -20.5t-40.5 -4.5t-40.5 4.5t-9.5 20.5zM150 -25q0 16 9.5 20.5t40.5 4.5t40.5 -4.5t9.5 -20.5t-9.5 -20.5t-40.5 -4.5t-40.5 4.5t-9.5 20.5zM150 75q0 16 9.5 20.5t40.5 4.5t40.5 -4.5t9.5 -20.5t-9.5 -20.5
t-40.5 -4.5t-40.5 4.5t-9.5 20.5zM150 175q0 16 9.5 20.5t40.5 4.5t40.5 -4.5t9.5 -20.5t-9.5 -20.5t-40.5 -4.5t-40.5 4.5t-9.5 20.5zM150 275q0 16 9.5 20.5t40.5 4.5t40.5 -4.5t9.5 -20.5t-9.5 -20.5t-40.5 -4.5t-40.5 4.5t-9.5 20.5zM0 375q0 9 2.5 13.5t17 7.5
t36.5 3.5t69 0.5t69 -0.5t36.5 -3.5t17 -7.5t2.5 -13.5t-2.5 -13.5t-17 -7.5t-36.5 -3.5t-69 -0.5t-69 0.5t-36.5 3.5t-17 7.5t-2.5 13.5zM150 475q0 16 9.5 20.5t40.5 4.5t40.5 -4.5t9.5 -20.5t-9.5 -20.5t-40.5 -4.5t-40.5 4.5t-9.5 20.5zM150 575q0 16 9.5 20.5t40.5 4.5
t40.5 -4.5t9.5 -20.5t-9.5 -20.5t-40.5 -4.5t-40.5 4.5t-9.5 20.5zM150 675q0 16 9.5 20.5t40.5 4.5t40.5 -4.5t9.5 -20.5t-9.5 -20.5t-40.5 -4.5t-40.5 4.5t-9.5 20.5zM150 775q0 16 9.5 20.5t40.5 4.5t40.5 -4.5t9.5 -20.5t-9.5 -20.5t-40.5 -4.5t-40.5 4.5t-9.5 20.5z
" />
    <glyph glyph-name="uni0017" 
d="M0 375q0 15 15 19q24 6 185 6q173 0 191 -9q9 -4 9 -16q0 -15 -15 -19q-24 -6 -185 -6q-173 0 -191 9q-9 4 -9 16zM150 475q0 16 9.5 20.5t40.5 4.5t40.5 -4.5t9.5 -20.5t-9.5 -20.5t-40.5 -4.5t-40.5 4.5t-9.5 20.5zM150 575q0 16 9.5 20.5t40.5 4.5t40.5 -4.5
t9.5 -20.5t-9.5 -20.5t-40.5 -4.5t-40.5 4.5t-9.5 20.5zM150 675q0 16 9.5 20.5t40.5 4.5t40.5 -4.5t9.5 -20.5t-9.5 -20.5t-40.5 -4.5t-40.5 4.5t-9.5 20.5zM150 775q0 16 9.5 20.5t40.5 4.5t40.5 -4.5t9.5 -20.5t-9.5 -20.5t-40.5 -4.5t-40.5 4.5t-9.5 20.5z" />
    <glyph glyph-name="uni0018" 
d="M150 -125q0 16 9.5 20.5t40.5 4.5t40.5 -4.5t9.5 -20.5t-9.5 -20.5t-40.5 -4.5t-40.5 4.5t-9.5 20.5zM150 -25q0 16 9.5 20.5t40.5 4.5t40.5 -4.5t9.5 -20.5t-9.5 -20.5t-40.5 -4.5t-40.5 4.5t-9.5 20.5zM150 75q0 16 9.5 20.5t40.5 4.5t40.5 -4.5t9.5 -20.5t-9.5 -20.5
t-40.5 -4.5t-40.5 4.5t-9.5 20.5zM150 175q0 16 9.5 20.5t40.5 4.5t40.5 -4.5t9.5 -20.5t-9.5 -20.5t-40.5 -4.5t-40.5 4.5t-9.5 20.5zM150 275q0 16 9.5 20.5t40.5 4.5t40.5 -4.5t9.5 -20.5t-9.5 -20.5t-40.5 -4.5t-40.5 4.5t-9.5 20.5zM0 375q0 15 15 19q24 6 185 6
q173 0 191 -9q9 -4 9 -16q0 -15 -15 -19q-24 -6 -185 -6q-173 0 -191 9q-9 4 -9 16z" />
    <glyph glyph-name="uni0019" 
d="M150 -125q0 16 9.5 20.5t40.5 4.5t40.5 -4.5t9.5 -20.5t-9.5 -20.5t-40.5 -4.5t-40.5 4.5t-9.5 20.5zM150 -25q0 16 9.5 20.5t40.5 4.5t40.5 -4.5t9.5 -20.5t-9.5 -20.5t-40.5 -4.5t-40.5 4.5t-9.5 20.5zM150 75q0 16 9.5 20.5t40.5 4.5t40.5 -4.5t9.5 -20.5t-9.5 -20.5
t-40.5 -4.5t-40.5 4.5t-9.5 20.5zM150 175q0 16 9.5 20.5t40.5 4.5t40.5 -4.5t9.5 -20.5t-9.5 -20.5t-40.5 -4.5t-40.5 4.5t-9.5 20.5zM150 275q0 16 9.5 20.5t40.5 4.5t40.5 -4.5t9.5 -20.5t-9.5 -20.5t-40.5 -4.5t-40.5 4.5t-9.5 20.5zM150 375q0 16 9.5 20.5t40.5 4.5
t40.5 -4.5t9.5 -20.5t-9.5 -20.5t-40.5 -4.5t-40.5 4.5t-9.5 20.5zM150 475q0 16 9.5 20.5t40.5 4.5t40.5 -4.5t9.5 -20.5t-9.5 -20.5t-40.5 -4.5t-40.5 4.5t-9.5 20.5zM150 575q0 16 9.5 20.5t40.5 4.5t40.5 -4.5t9.5 -20.5t-9.5 -20.5t-40.5 -4.5t-40.5 4.5t-9.5 20.5z
M150 675q0 16 9.5 20.5t40.5 4.5t40.5 -4.5t9.5 -20.5t-9.5 -20.5t-40.5 -4.5t-40.5 4.5t-9.5 20.5zM150 775q0 16 9.5 20.5t40.5 4.5t40.5 -4.5t9.5 -20.5t-9.5 -20.5t-40.5 -4.5t-40.5 4.5t-9.5 20.5z" />
    <glyph glyph-name="uni001A" 
d="M0 -25q0 15 15 19q24 6 185 6q173 0 191 -9q9 -4 9 -16q0 -15 -15 -19q-24 -6 -185 -6q-173 0 -191 9q-9 4 -9 16zM300 75q0 16 9.5 20.5t40.5 4.5t40.5 -4.5t9.5 -20.5t-9.5 -20.5t-40.5 -4.5t-40.5 4.5t-9.5 20.5zM200 175q0 16 9.5 20.5t40.5 4.5t40.5 -4.5t9.5 -20.5
t-9.5 -20.5t-40.5 -4.5t-40.5 4.5t-9.5 20.5zM100 275q0 16 9.5 20.5t40.5 4.5t40.5 -4.5t9.5 -20.5t-9.5 -20.5t-40.5 -4.5t-40.5 4.5t-9.5 20.5zM0 375q0 16 9.5 20.5t40.5 4.5t40.5 -4.5t9.5 -20.5t-9.5 -20.5t-40.5 -4.5t-40.5 4.5t-9.5 20.5zM100 475q0 16 9.5 20.5
t40.5 4.5t40.5 -4.5t9.5 -20.5t-9.5 -20.5t-40.5 -4.5t-40.5 4.5t-9.5 20.5zM200 575q0 16 9.5 20.5t40.5 4.5t40.5 -4.5t9.5 -20.5t-9.5 -20.5t-40.5 -4.5t-40.5 4.5t-9.5 20.5zM300 675q0 16 9.5 20.5t40.5 4.5t40.5 -4.5t9.5 -20.5t-9.5 -20.5t-40.5 -4.5t-40.5 4.5
t-9.5 20.5z" />
    <glyph glyph-name="uni001B" 
d="M0 -25q0 15 15 19q24 6 185 6q173 0 191 -9q9 -4 9 -16q0 -15 -15 -19q-24 -6 -185 -6q-173 0 -191 9q-9 4 -9 16zM0 75q0 16 9.5 20.5t40.5 4.5t40.5 -4.5t9.5 -20.5t-9.5 -20.5t-40.5 -4.5t-40.5 4.5t-9.5 20.5zM100 175q0 16 9.5 20.5t40.5 4.5t40.5 -4.5t9.5 -20.5
t-9.5 -20.5t-40.5 -4.5t-40.5 4.5t-9.5 20.5zM200 275q0 16 9.5 20.5t40.5 4.5t40.5 -4.5t9.5 -20.5t-9.5 -20.5t-40.5 -4.5t-40.5 4.5t-9.5 20.5zM300 375q0 16 9.5 20.5t40.5 4.5t40.5 -4.5t9.5 -20.5t-9.5 -20.5t-40.5 -4.5t-40.5 4.5t-9.5 20.5zM200 475q0 16 9.5 20.5
t40.5 4.5t40.5 -4.5t9.5 -20.5t-9.5 -20.5t-40.5 -4.5t-40.5 4.5t-9.5 20.5zM100 575q0 16 9.5 20.5t40.5 4.5t40.5 -4.5t9.5 -20.5t-9.5 -20.5t-40.5 -4.5t-40.5 4.5t-9.5 20.5zM0 675q0 16 9.5 20.5t40.5 4.5t40.5 -4.5t9.5 -20.5t-9.5 -20.5t-40.5 -4.5t-40.5 4.5
t-9.5 20.5z" />
    <glyph glyph-name="uni001C" 
d="M250 75q0 16 9.5 20.5t40.5 4.5t40.5 -4.5t9.5 -20.5t-9.5 -20.5t-40.5 -4.5t-40.5 4.5t-9.5 20.5zM50 75q0 16 9.5 20.5t40.5 4.5t40.5 -4.5t9.5 -20.5t-9.5 -20.5t-40.5 -4.5t-40.5 4.5t-9.5 20.5zM250 175q0 16 9.5 20.5t40.5 4.5t40.5 -4.5t9.5 -20.5t-9.5 -20.5
t-40.5 -4.5t-40.5 4.5t-9.5 20.5zM100 175q0 16 9.5 20.5t40.5 4.5t40.5 -4.5t9.5 -20.5t-9.5 -20.5t-40.5 -4.5t-40.5 4.5t-9.5 20.5zM250 275q0 16 9.5 20.5t40.5 4.5t40.5 -4.5t9.5 -20.5t-9.5 -20.5t-40.5 -4.5t-40.5 4.5t-9.5 20.5zM100 275q0 16 9.5 20.5t40.5 4.5
t40.5 -4.5t9.5 -20.5t-9.5 -20.5t-40.5 -4.5t-40.5 4.5t-9.5 20.5zM250 375q0 16 9.5 20.5t40.5 4.5t40.5 -4.5t9.5 -20.5t-9.5 -20.5t-40.5 -4.5t-40.5 4.5t-9.5 20.5zM100 375q0 16 9.5 20.5t40.5 4.5t40.5 -4.5t9.5 -20.5t-9.5 -20.5t-40.5 -4.5t-40.5 4.5t-9.5 20.5z
M0 475q0 15 15 19q24 6 185 6q173 0 191 -9q9 -4 9 -16q0 -15 -15 -19q-24 -6 -185 -6q-173 0 -191 9q-9 4 -9 16z" />
    <glyph glyph-name="uni001D" 
d="M0 75q0 16 9.5 20.5t40.5 4.5t40.5 -4.5t9.5 -20.5t-9.5 -20.5t-40.5 -4.5t-40.5 4.5t-9.5 20.5zM50 175q0 16 9.5 20.5t40.5 4.5t40.5 -4.5t9.5 -20.5t-9.5 -20.5t-40.5 -4.5t-40.5 4.5t-9.5 20.5zM0 275q0 15 15 19q24 6 185 6q173 0 191 -9q9 -4 9 -16q0 -15 -15 -19
q-24 -6 -185 -6q-173 0 -191 9q-9 4 -9 16zM150 375q0 16 9.5 20.5t40.5 4.5t40.5 -4.5t9.5 -20.5t-9.5 -20.5t-40.5 -4.5t-40.5 4.5t-9.5 20.5zM0 475q0 15 15 19q24 6 185 6q173 0 191 -9q9 -4 9 -16q0 -15 -15 -19q-24 -6 -185 -6q-173 0 -191 9q-9 4 -9 16zM250 575
q0 16 9.5 20.5t40.5 4.5t40.5 -4.5t9.5 -20.5t-9.5 -20.5t-40.5 -4.5t-40.5 4.5t-9.5 20.5zM300 675q0 16 9.5 20.5t40.5 4.5t40.5 -4.5t9.5 -20.5t-9.5 -20.5t-40.5 -4.5t-40.5 4.5t-9.5 20.5z" />
    <glyph glyph-name="uni001E" 
d="M50 -25q0 16 9.5 20.5t40.5 4.5t40.5 -4.5t9.5 -20.5t-9.5 -20.5t-40.5 -4.5t-40.5 4.5t-9.5 20.5zM250 75q0 17 13 21t62 4q50 0 62.5 -4t12.5 -21t-12.5 -21t-62.5 -4q-49 0 -62 4t-13 21zM0 75q0 17 16 21t84 4t84 -4t16 -21t-16 -21t-84 -4t-84 4t-16 21zM50 175
q0 9 2.5 13.5t17 7.5t36.5 3.5t69 0.5t69 -0.5t36.5 -3.5t17 -7.5t2.5 -13.5t-2.5 -13.5t-17 -7.5t-36.5 -3.5t-69 -0.5t-69 0.5t-36.5 3.5t-17 7.5t-2.5 13.5zM100 275q0 16 9.5 20.5t40.5 4.5t40.5 -4.5t9.5 -20.5t-9.5 -20.5t-40.5 -4.5t-40.5 4.5t-9.5 20.5zM0 375
q0 16 15 20q19 5 135 5q129 0 143 -9q7 -4 7 -16q0 -16 -15 -20q-19 -5 -135 -5q-129 0 -143 9q-7 4 -7 16zM100 475q0 16 9.5 20.5t40.5 4.5t40.5 -4.5t9.5 -20.5t-9.5 -20.5t-40.5 -4.5t-40.5 4.5t-9.5 20.5zM300 575q0 16 9.5 20.5t40.5 4.5t40.5 -4.5t9.5 -20.5
t-9.5 -20.5t-40.5 -4.5t-40.5 4.5t-9.5 20.5zM100 575q0 16 9.5 20.5t40.5 4.5t40.5 -4.5t9.5 -20.5t-9.5 -20.5t-40.5 -4.5t-40.5 4.5t-9.5 20.5zM150 675q0 17 16 21t84 4t84 -4t16 -21t-16 -21t-84 -4t-84 4t-16 21z" />
    <glyph glyph-name="uni001F" 
d="M150 375q0 16 9.5 20.5t40.5 4.5t40.5 -4.5t9.5 -20.5t-9.5 -20.5t-40.5 -4.5t-40.5 4.5t-9.5 20.5z" />
    <glyph glyph-name="space" unicode=" " 
 />
    <glyph glyph-name="exclam" unicode="!" 
d="M150 75q0 16 9.5 20.5t40.5 4.5t40.5 -4.5t9.5 -20.5t-9.5 -20.5t-40.5 -4.5t-40.5 4.5t-9.5 20.5zM150 275q0 16 9.5 20.5t40.5 4.5t40.5 -4.5t9.5 -20.5t-9.5 -20.5t-40.5 -4.5t-40.5 4.5t-9.5 20.5zM150 375q0 16 9.5 20.5t40.5 4.5t40.5 -4.5t9.5 -20.5t-9.5 -20.5
t-40.5 -4.5t-40.5 4.5t-9.5 20.5zM150 475q0 16 9.5 20.5t40.5 4.5t40.5 -4.5t9.5 -20.5t-9.5 -20.5t-40.5 -4.5t-40.5 4.5t-9.5 20.5zM150 575q0 16 9.5 20.5t40.5 4.5t40.5 -4.5t9.5 -20.5t-9.5 -20.5t-40.5 -4.5t-40.5 4.5t-9.5 20.5zM150 675q0 16 9.5 20.5t40.5 4.5
t40.5 -4.5t9.5 -20.5t-9.5 -20.5t-40.5 -4.5t-40.5 4.5t-9.5 20.5z" />
    <glyph glyph-name="quotedbl" unicode="&#x22;" 
d="M200 475q0 16 9.5 20.5t40.5 4.5t40.5 -4.5t9.5 -20.5t-9.5 -20.5t-40.5 -4.5t-40.5 4.5t-9.5 20.5zM50 475q0 16 9.5 20.5t40.5 4.5t40.5 -4.5t9.5 -20.5t-9.5 -20.5t-40.5 -4.5t-40.5 4.5t-9.5 20.5zM200 575q0 16 9.5 20.5t40.5 4.5t40.5 -4.5t9.5 -20.5t-9.5 -20.5
t-40.5 -4.5t-40.5 4.5t-9.5 20.5zM50 575q0 16 9.5 20.5t40.5 4.5t40.5 -4.5t9.5 -20.5t-9.5 -20.5t-40.5 -4.5t-40.5 4.5t-9.5 20.5zM200 675q0 16 9.5 20.5t40.5 4.5t40.5 -4.5t9.5 -20.5t-9.5 -20.5t-40.5 -4.5t-40.5 4.5t-9.5 20.5zM50 675q0 16 9.5 20.5t40.5 4.5
t40.5 -4.5t9.5 -20.5t-9.5 -20.5t-40.5 -4.5t-40.5 4.5t-9.5 20.5z" />
    <glyph glyph-name="numbersign" unicode="#" 
d="M200 75q0 16 9.5 20.5t40.5 4.5t40.5 -4.5t9.5 -20.5t-9.5 -20.5t-40.5 -4.5t-40.5 4.5t-9.5 20.5zM50 75q0 16 9.5 20.5t40.5 4.5t40.5 -4.5t9.5 -20.5t-9.5 -20.5t-40.5 -4.5t-40.5 4.5t-9.5 20.5zM200 175q0 16 9.5 20.5t40.5 4.5t40.5 -4.5t9.5 -20.5t-9.5 -20.5
t-40.5 -4.5t-40.5 4.5t-9.5 20.5zM50 175q0 16 9.5 20.5t40.5 4.5t40.5 -4.5t9.5 -20.5t-9.5 -20.5t-40.5 -4.5t-40.5 4.5t-9.5 20.5zM0 275q0 15 15 19q22 6 160 6q151 0 167 -9q8 -4 8 -16q0 -15 -15 -19q-22 -6 -160 -6q-151 0 -167 9q-8 4 -8 16zM200 375q0 16 9.5 20.5
t40.5 4.5t40.5 -4.5t9.5 -20.5t-9.5 -20.5t-40.5 -4.5t-40.5 4.5t-9.5 20.5zM50 375q0 16 9.5 20.5t40.5 4.5t40.5 -4.5t9.5 -20.5t-9.5 -20.5t-40.5 -4.5t-40.5 4.5t-9.5 20.5zM0 475q0 15 15 19q22 6 160 6q151 0 167 -9q8 -4 8 -16q0 -15 -15 -19q-22 -6 -160 -6
q-151 0 -167 9q-8 4 -8 16zM200 575q0 16 9.5 20.5t40.5 4.5t40.5 -4.5t9.5 -20.5t-9.5 -20.5t-40.5 -4.5t-40.5 4.5t-9.5 20.5zM50 575q0 16 9.5 20.5t40.5 4.5t40.5 -4.5t9.5 -20.5t-9.5 -20.5t-40.5 -4.5t-40.5 4.5t-9.5 20.5zM200 675q0 16 9.5 20.5t40.5 4.5t40.5 -4.5
t9.5 -20.5t-9.5 -20.5t-40.5 -4.5t-40.5 4.5t-9.5 20.5zM50 675q0 16 9.5 20.5t40.5 4.5t40.5 -4.5t9.5 -20.5t-9.5 -20.5t-40.5 -4.5t-40.5 4.5t-9.5 20.5z" />
    <glyph glyph-name="dollar" unicode="$" 
d="M150 75q0 16 9.5 20.5t40.5 4.5t40.5 -4.5t9.5 -20.5t-9.5 -20.5t-40.5 -4.5t-40.5 4.5t-9.5 20.5zM50 175q0 16 15 20q19 5 135 5q129 0 143 -9q7 -4 7 -16q0 -16 -15 -20q-19 -5 -135 -5q-129 0 -143 9q-7 4 -7 16zM300 275q0 16 9.5 20.5t40.5 4.5t40.5 -4.5
t9.5 -20.5t-9.5 -20.5t-40.5 -4.5t-40.5 4.5t-9.5 20.5zM150 275q0 16 9.5 20.5t40.5 4.5t40.5 -4.5t9.5 -20.5t-9.5 -20.5t-40.5 -4.5t-40.5 4.5t-9.5 20.5zM50 375q0 16 15 20q19 5 135 5q129 0 143 -9q7 -4 7 -16q0 -16 -15 -20q-19 -5 -135 -5q-129 0 -143 9q-7 4 -7 16
zM150 475q0 16 9.5 20.5t40.5 4.5t40.5 -4.5t9.5 -20.5t-9.5 -20.5t-40.5 -4.5t-40.5 4.5t-9.5 20.5zM0 475q0 16 9.5 20.5t40.5 4.5t40.5 -4.5t9.5 -20.5t-9.5 -20.5t-40.5 -4.5t-40.5 4.5t-9.5 20.5zM50 575q0 16 15 20q19 5 135 5q129 0 143 -9q7 -4 7 -16q0 -16 -15 -20
q-19 -5 -135 -5q-129 0 -143 9q-7 4 -7 16zM150 675q0 16 9.5 20.5t40.5 4.5t40.5 -4.5t9.5 -20.5t-9.5 -20.5t-40.5 -4.5t-40.5 4.5t-9.5 20.5z" />
    <glyph glyph-name="percent" unicode="%" 
d="M250 75q0 16 9.5 20.5t40.5 4.5t40.5 -4.5t9.5 -20.5t-9.5 -20.5t-40.5 -4.5t-40.5 4.5t-9.5 20.5zM0 75q0 16 9.5 20.5t40.5 4.5t40.5 -4.5t9.5 -20.5t-9.5 -20.5t-40.5 -4.5t-40.5 4.5t-9.5 20.5zM200 175q0 17 16 21t84 4t84 -4t16 -21t-16 -21t-84 -4t-84 4t-16 21z
M50 175q0 16 9.5 20.5t40.5 4.5t40.5 -4.5t9.5 -20.5t-9.5 -20.5t-40.5 -4.5t-40.5 4.5t-9.5 20.5zM250 275q0 16 9.5 20.5t40.5 4.5t40.5 -4.5t9.5 -20.5t-9.5 -20.5t-40.5 -4.5t-40.5 4.5t-9.5 20.5zM100 275q0 16 9.5 20.5t40.5 4.5t40.5 -4.5t9.5 -20.5t-9.5 -20.5
t-40.5 -4.5t-40.5 4.5t-9.5 20.5zM150 375q0 16 9.5 20.5t40.5 4.5t40.5 -4.5t9.5 -20.5t-9.5 -20.5t-40.5 -4.5t-40.5 4.5t-9.5 20.5zM200 475q0 16 9.5 20.5t40.5 4.5t40.5 -4.5t9.5 -20.5t-9.5 -20.5t-40.5 -4.5t-40.5 4.5t-9.5 20.5zM50 475q0 16 9.5 20.5t40.5 4.5
t40.5 -4.5t9.5 -20.5t-9.5 -20.5t-40.5 -4.5t-40.5 4.5t-9.5 20.5zM250 575q0 16 9.5 20.5t40.5 4.5t40.5 -4.5t9.5 -20.5t-9.5 -20.5t-40.5 -4.5t-40.5 4.5t-9.5 20.5zM0 575q0 17 16 21t84 4t84 -4t16 -21t-16 -21t-84 -4t-84 4t-16 21zM300 675q0 16 9.5 20.5t40.5 4.5
t40.5 -4.5t9.5 -20.5t-9.5 -20.5t-40.5 -4.5t-40.5 4.5t-9.5 20.5zM50 675q0 16 9.5 20.5t40.5 4.5t40.5 -4.5t9.5 -20.5t-9.5 -20.5t-40.5 -4.5t-40.5 4.5t-9.5 20.5z" />
    <glyph glyph-name="ampersand" unicode="&#x26;" 
d="M50 75q0 15 15 19q22 6 160 6q151 0 167 -9q8 -4 8 -16q0 -15 -15 -19q-22 -6 -160 -6q-151 0 -167 9q-8 4 -8 16zM250 175q0 16 9.5 20.5t40.5 4.5t40.5 -4.5t9.5 -20.5t-9.5 -20.5t-40.5 -4.5t-40.5 4.5t-9.5 20.5zM0 175q0 16 9.5 20.5t40.5 4.5t40.5 -4.5t9.5 -20.5
t-9.5 -20.5t-40.5 -4.5t-40.5 4.5t-9.5 20.5zM200 275q0 17 16 21t84 4t84 -4t16 -21t-16 -21t-84 -4t-84 4t-16 21zM0 275q0 16 9.5 20.5t40.5 4.5t40.5 -4.5t9.5 -20.5t-9.5 -20.5t-40.5 -4.5t-40.5 4.5t-9.5 20.5zM50 375q0 17 16 21t84 4t84 -4t16 -21t-16 -21t-84 -4
t-84 4t-16 21zM200 475q0 16 9.5 20.5t40.5 4.5t40.5 -4.5t9.5 -20.5t-9.5 -20.5t-40.5 -4.5t-40.5 4.5t-9.5 20.5zM0 475q0 16 9.5 20.5t40.5 4.5t40.5 -4.5t9.5 -20.5t-9.5 -20.5t-40.5 -4.5t-40.5 4.5t-9.5 20.5zM200 575q0 16 9.5 20.5t40.5 4.5t40.5 -4.5t9.5 -20.5
t-9.5 -20.5t-40.5 -4.5t-40.5 4.5t-9.5 20.5zM0 575q0 16 9.5 20.5t40.5 4.5t40.5 -4.5t9.5 -20.5t-9.5 -20.5t-40.5 -4.5t-40.5 4.5t-9.5 20.5zM50 675q0 17 16 21t84 4t84 -4t16 -21t-16 -21t-84 -4t-84 4t-16 21z" />
    <glyph glyph-name="quotesingle" unicode="'" 
d="M100 475q0 16 9.5 20.5t40.5 4.5t40.5 -4.5t9.5 -20.5t-9.5 -20.5t-40.5 -4.5t-40.5 4.5t-9.5 20.5zM150 575q0 16 9.5 20.5t40.5 4.5t40.5 -4.5t9.5 -20.5t-9.5 -20.5t-40.5 -4.5t-40.5 4.5t-9.5 20.5zM150 675q0 17 13 21t62 4t62 -4t13 -21t-13 -21t-62 -4t-62 4
t-13 21z" />
    <glyph glyph-name="parenleft" unicode="(" 
d="M200 75q0 16 9.5 20.5t40.5 4.5t40.5 -4.5t9.5 -20.5t-9.5 -20.5t-40.5 -4.5t-40.5 4.5t-9.5 20.5zM150 175q0 16 9.5 20.5t40.5 4.5t40.5 -4.5t9.5 -20.5t-9.5 -20.5t-40.5 -4.5t-40.5 4.5t-9.5 20.5zM100 275q0 16 9.5 20.5t40.5 4.5t40.5 -4.5t9.5 -20.5t-9.5 -20.5
t-40.5 -4.5t-40.5 4.5t-9.5 20.5zM100 375q0 16 9.5 20.5t40.5 4.5t40.5 -4.5t9.5 -20.5t-9.5 -20.5t-40.5 -4.5t-40.5 4.5t-9.5 20.5zM100 475q0 16 9.5 20.5t40.5 4.5t40.5 -4.5t9.5 -20.5t-9.5 -20.5t-40.5 -4.5t-40.5 4.5t-9.5 20.5zM150 575q0 16 9.5 20.5t40.5 4.5
t40.5 -4.5t9.5 -20.5t-9.5 -20.5t-40.5 -4.5t-40.5 4.5t-9.5 20.5zM200 675q0 16 9.5 20.5t40.5 4.5t40.5 -4.5t9.5 -20.5t-9.5 -20.5t-40.5 -4.5t-40.5 4.5t-9.5 20.5z" />
    <glyph glyph-name="parenright" unicode=")" 
d="M100 75q0 16 9.5 20.5t40.5 4.5t40.5 -4.5t9.5 -20.5t-9.5 -20.5t-40.5 -4.5t-40.5 4.5t-9.5 20.5zM150 175q0 16 9.5 20.5t40.5 4.5t40.5 -4.5t9.5 -20.5t-9.5 -20.5t-40.5 -4.5t-40.5 4.5t-9.5 20.5zM200 275q0 16 9.5 20.5t40.5 4.5t40.5 -4.5t9.5 -20.5t-9.5 -20.5
t-40.5 -4.5t-40.5 4.5t-9.5 20.5zM200 375q0 16 9.5 20.5t40.5 4.5t40.5 -4.5t9.5 -20.5t-9.5 -20.5t-40.5 -4.5t-40.5 4.5t-9.5 20.5zM200 475q0 16 9.5 20.5t40.5 4.5t40.5 -4.5t9.5 -20.5t-9.5 -20.5t-40.5 -4.5t-40.5 4.5t-9.5 20.5zM150 575q0 16 9.5 20.5t40.5 4.5
t40.5 -4.5t9.5 -20.5t-9.5 -20.5t-40.5 -4.5t-40.5 4.5t-9.5 20.5zM100 675q0 16 9.5 20.5t40.5 4.5t40.5 -4.5t9.5 -20.5t-9.5 -20.5t-40.5 -4.5t-40.5 4.5t-9.5 20.5z" />
    <glyph glyph-name="asterisk" unicode="*" 
d="M250 175q0 16 9.5 20.5t40.5 4.5t40.5 -4.5t9.5 -20.5t-9.5 -20.5t-40.5 -4.5t-40.5 4.5t-9.5 20.5zM50 175q0 16 9.5 20.5t40.5 4.5t40.5 -4.5t9.5 -20.5t-9.5 -20.5t-40.5 -4.5t-40.5 4.5t-9.5 20.5zM100 275q0 17 16 21t84 4t84 -4t16 -21t-16 -21t-84 -4t-84 4
t-16 21zM0 375q0 15 15 19q24 6 185 6q173 0 191 -9q9 -4 9 -16q0 -15 -15 -19q-24 -6 -185 -6q-173 0 -191 9q-9 4 -9 16zM100 475q0 17 16 21t84 4t84 -4t16 -21t-16 -21t-84 -4t-84 4t-16 21zM250 575q0 16 9.5 20.5t40.5 4.5t40.5 -4.5t9.5 -20.5t-9.5 -20.5t-40.5 -4.5
t-40.5 4.5t-9.5 20.5zM50 575q0 16 9.5 20.5t40.5 4.5t40.5 -4.5t9.5 -20.5t-9.5 -20.5t-40.5 -4.5t-40.5 4.5t-9.5 20.5z" />
    <glyph glyph-name="plus" unicode="+" 
d="M150 175q0 16 9.5 20.5t40.5 4.5t40.5 -4.5t9.5 -20.5t-9.5 -20.5t-40.5 -4.5t-40.5 4.5t-9.5 20.5zM150 275q0 16 9.5 20.5t40.5 4.5t40.5 -4.5t9.5 -20.5t-9.5 -20.5t-40.5 -4.5t-40.5 4.5t-9.5 20.5zM0 375q0 15 15 19q24 6 185 6q173 0 191 -9q9 -4 9 -16
q0 -15 -15 -19q-24 -6 -185 -6q-173 0 -191 9q-9 4 -9 16zM150 475q0 16 9.5 20.5t40.5 4.5t40.5 -4.5t9.5 -20.5t-9.5 -20.5t-40.5 -4.5t-40.5 4.5t-9.5 20.5zM150 575q0 16 9.5 20.5t40.5 4.5t40.5 -4.5t9.5 -20.5t-9.5 -20.5t-40.5 -4.5t-40.5 4.5t-9.5 20.5z" />
    <glyph glyph-name="comma" unicode="," 
d="M50 -25q0 16 9.5 20.5t40.5 4.5t40.5 -4.5t9.5 -20.5t-9.5 -20.5t-40.5 -4.5t-40.5 4.5t-9.5 20.5zM100 75q0 16 9.5 20.5t40.5 4.5t40.5 -4.5t9.5 -20.5t-9.5 -20.5t-40.5 -4.5t-40.5 4.5t-9.5 20.5zM100 175q0 17 13 21t62 4t62 -4t13 -21t-13 -21t-62 -4t-62 4t-13 21
z" />
    <glyph glyph-name="hyphen" unicode="-" 
d="M0 375q0 15 15 19q24 6 185 6q173 0 191 -9q9 -4 9 -16q0 -15 -15 -19q-24 -6 -185 -6q-173 0 -191 9q-9 4 -9 16z" />
    <glyph glyph-name="period" unicode="." 
d="M100 75q0 17 13 21t62 4t62 -4t13 -21t-13 -21t-62 -4t-62 4t-13 21zM100 175q0 17 13 21t62 4t62 -4t13 -21t-13 -21t-62 -4t-62 4t-13 21z" />
    <glyph glyph-name="slash" unicode="/" 
d="M0 75q0 16 9.5 20.5t40.5 4.5t40.5 -4.5t9.5 -20.5t-9.5 -20.5t-40.5 -4.5t-40.5 4.5t-9.5 20.5zM50 175q0 16 9.5 20.5t40.5 4.5t40.5 -4.5t9.5 -20.5t-9.5 -20.5t-40.5 -4.5t-40.5 4.5t-9.5 20.5zM100 275q0 16 9.5 20.5t40.5 4.5t40.5 -4.5t9.5 -20.5t-9.5 -20.5
t-40.5 -4.5t-40.5 4.5t-9.5 20.5zM150 375q0 16 9.5 20.5t40.5 4.5t40.5 -4.5t9.5 -20.5t-9.5 -20.5t-40.5 -4.5t-40.5 4.5t-9.5 20.5zM200 475q0 16 9.5 20.5t40.5 4.5t40.5 -4.5t9.5 -20.5t-9.5 -20.5t-40.5 -4.5t-40.5 4.5t-9.5 20.5zM250 575q0 16 9.5 20.5t40.5 4.5
t40.5 -4.5t9.5 -20.5t-9.5 -20.5t-40.5 -4.5t-40.5 4.5t-9.5 20.5zM300 675q0 16 9.5 20.5t40.5 4.5t40.5 -4.5t9.5 -20.5t-9.5 -20.5t-40.5 -4.5t-40.5 4.5t-9.5 20.5z" />
    <glyph glyph-name="zero" unicode="0" 
d="M100 75q0 17 16 21t84 4t84 -4t16 -21t-16 -21t-84 -4t-84 4t-16 21zM250 175q0 16 9.5 20.5t40.5 4.5t40.5 -4.5t9.5 -20.5t-9.5 -20.5t-40.5 -4.5t-40.5 4.5t-9.5 20.5zM50 175q0 16 9.5 20.5t40.5 4.5t40.5 -4.5t9.5 -20.5t-9.5 -20.5t-40.5 -4.5t-40.5 4.5t-9.5 20.5
zM300 275q0 16 9.5 20.5t40.5 4.5t40.5 -4.5t9.5 -20.5t-9.5 -20.5t-40.5 -4.5t-40.5 4.5t-9.5 20.5zM0 275q0 16 9.5 20.5t40.5 4.5t40.5 -4.5t9.5 -20.5t-9.5 -20.5t-40.5 -4.5t-40.5 4.5t-9.5 20.5zM300 375q0 16 9.5 20.5t40.5 4.5t40.5 -4.5t9.5 -20.5t-9.5 -20.5
t-40.5 -4.5t-40.5 4.5t-9.5 20.5zM0 375q0 16 9.5 20.5t40.5 4.5t40.5 -4.5t9.5 -20.5t-9.5 -20.5t-40.5 -4.5t-40.5 4.5t-9.5 20.5zM300 475q0 16 9.5 20.5t40.5 4.5t40.5 -4.5t9.5 -20.5t-9.5 -20.5t-40.5 -4.5t-40.5 4.5t-9.5 20.5zM0 475q0 16 9.5 20.5t40.5 4.5
t40.5 -4.5t9.5 -20.5t-9.5 -20.5t-40.5 -4.5t-40.5 4.5t-9.5 20.5zM250 575q0 16 9.5 20.5t40.5 4.5t40.5 -4.5t9.5 -20.5t-9.5 -20.5t-40.5 -4.5t-40.5 4.5t-9.5 20.5zM50 575q0 16 9.5 20.5t40.5 4.5t40.5 -4.5t9.5 -20.5t-9.5 -20.5t-40.5 -4.5t-40.5 4.5t-9.5 20.5z
M100 675q0 17 16 21t84 4t84 -4t16 -21t-16 -21t-84 -4t-84 4t-16 21z" />
    <glyph glyph-name="one" unicode="1" 
d="M50 75q0 16 15 20q19 5 135 5q129 0 143 -9q7 -4 7 -16q0 -16 -15 -20q-19 -5 -135 -5q-129 0 -143 9q-7 4 -7 16zM150 175q0 16 9.5 20.5t40.5 4.5t40.5 -4.5t9.5 -20.5t-9.5 -20.5t-40.5 -4.5t-40.5 4.5t-9.5 20.5zM150 275q0 16 9.5 20.5t40.5 4.5t40.5 -4.5
t9.5 -20.5t-9.5 -20.5t-40.5 -4.5t-40.5 4.5t-9.5 20.5zM150 375q0 16 9.5 20.5t40.5 4.5t40.5 -4.5t9.5 -20.5t-9.5 -20.5t-40.5 -4.5t-40.5 4.5t-9.5 20.5zM50 475q0 17 16 21t84 4t84 -4t16 -21t-16 -21t-84 -4t-84 4t-16 21zM100 575q0 17 13 21t62 4t62 -4t13 -21
t-13 -21t-62 -4t-62 4t-13 21zM150 675q0 16 9.5 20.5t40.5 4.5t40.5 -4.5t9.5 -20.5t-9.5 -20.5t-40.5 -4.5t-40.5 4.5t-9.5 20.5z" />
    <glyph glyph-name="two" unicode="2" 
d="M0 75q0 15 15 19q24 6 185 6q173 0 191 -9q9 -4 9 -16q0 -15 -15 -19q-24 -6 -185 -6q-173 0 -191 9q-9 4 -9 16zM0 175q0 16 9.5 20.5t40.5 4.5t40.5 -4.5t9.5 -20.5t-9.5 -20.5t-40.5 -4.5t-40.5 4.5t-9.5 20.5zM50 275q0 17 13 21t62 4t62 -4t13 -21t-13 -21t-62 -4
t-62 4t-13 21zM150 375q0 17 16 21t84 4t84 -4t16 -21t-16 -21t-84 -4t-84 4t-16 21zM300 475q0 16 9.5 20.5t40.5 4.5t40.5 -4.5t9.5 -20.5t-9.5 -20.5t-40.5 -4.5t-40.5 4.5t-9.5 20.5zM300 575q0 16 9.5 20.5t40.5 4.5t40.5 -4.5t9.5 -20.5t-9.5 -20.5t-40.5 -4.5
t-40.5 4.5t-9.5 20.5zM0 575q0 16 9.5 20.5t40.5 4.5t40.5 -4.5t9.5 -20.5t-9.5 -20.5t-40.5 -4.5t-40.5 4.5t-9.5 20.5zM50 675q0 16 15 20q19 5 135 5q129 0 143 -9q7 -4 7 -16q0 -16 -15 -20q-19 -5 -135 -5q-129 0 -143 9q-7 4 -7 16z" />
    <glyph glyph-name="three" unicode="3" 
d="M50 75q0 16 15 20q19 5 135 5q129 0 143 -9q7 -4 7 -16q0 -16 -15 -20q-19 -5 -135 -5q-129 0 -143 9q-7 4 -7 16zM300 175q0 16 9.5 20.5t40.5 4.5t40.5 -4.5t9.5 -20.5t-9.5 -20.5t-40.5 -4.5t-40.5 4.5t-9.5 20.5zM0 175q0 16 9.5 20.5t40.5 4.5t40.5 -4.5t9.5 -20.5
t-9.5 -20.5t-40.5 -4.5t-40.5 4.5t-9.5 20.5zM300 275q0 16 9.5 20.5t40.5 4.5t40.5 -4.5t9.5 -20.5t-9.5 -20.5t-40.5 -4.5t-40.5 4.5t-9.5 20.5zM150 375q0 17 16 21t84 4t84 -4t16 -21t-16 -21t-84 -4t-84 4t-16 21zM200 475q0 16 9.5 20.5t40.5 4.5t40.5 -4.5t9.5 -20.5
t-9.5 -20.5t-40.5 -4.5t-40.5 4.5t-9.5 20.5zM250 575q0 16 9.5 20.5t40.5 4.5t40.5 -4.5t9.5 -20.5t-9.5 -20.5t-40.5 -4.5t-40.5 4.5t-9.5 20.5zM0 675q0 15 15 19q24 6 185 6q173 0 191 -9q9 -4 9 -16q0 -15 -15 -19q-24 -6 -185 -6q-173 0 -191 9q-9 4 -9 16z" />
    <glyph glyph-name="four" unicode="4" 
d="M200 75q0 16 9.5 20.5t40.5 4.5t40.5 -4.5t9.5 -20.5t-9.5 -20.5t-40.5 -4.5t-40.5 4.5t-9.5 20.5zM200 175q0 16 9.5 20.5t40.5 4.5t40.5 -4.5t9.5 -20.5t-9.5 -20.5t-40.5 -4.5t-40.5 4.5t-9.5 20.5zM0 275q0 15 15 19q24 6 185 6q173 0 191 -9q9 -4 9 -16
q0 -15 -15 -19q-24 -6 -185 -6q-173 0 -191 9q-9 4 -9 16zM200 375q0 16 9.5 20.5t40.5 4.5t40.5 -4.5t9.5 -20.5t-9.5 -20.5t-40.5 -4.5t-40.5 4.5t-9.5 20.5zM50 375q0 16 9.5 20.5t40.5 4.5t40.5 -4.5t9.5 -20.5t-9.5 -20.5t-40.5 -4.5t-40.5 4.5t-9.5 20.5zM100 475
q0 17 16 21t84 4t84 -4t16 -21t-16 -21t-84 -4t-84 4t-16 21zM150 575q0 17 13 21t62 4t62 -4t13 -21t-13 -21t-62 -4t-62 4t-13 21zM200 675q0 16 9.5 20.5t40.5 4.5t40.5 -4.5t9.5 -20.5t-9.5 -20.5t-40.5 -4.5t-40.5 4.5t-9.5 20.5z" />
    <glyph glyph-name="five" unicode="5" 
d="M50 75q0 16 15 20q19 5 135 5q129 0 143 -9q7 -4 7 -16q0 -16 -15 -20q-19 -5 -135 -5q-129 0 -143 9q-7 4 -7 16zM300 175q0 16 9.5 20.5t40.5 4.5t40.5 -4.5t9.5 -20.5t-9.5 -20.5t-40.5 -4.5t-40.5 4.5t-9.5 20.5zM0 175q0 16 9.5 20.5t40.5 4.5t40.5 -4.5t9.5 -20.5
t-9.5 -20.5t-40.5 -4.5t-40.5 4.5t-9.5 20.5zM300 275q0 16 9.5 20.5t40.5 4.5t40.5 -4.5t9.5 -20.5t-9.5 -20.5t-40.5 -4.5t-40.5 4.5t-9.5 20.5zM300 375q0 16 9.5 20.5t40.5 4.5t40.5 -4.5t9.5 -20.5t-9.5 -20.5t-40.5 -4.5t-40.5 4.5t-9.5 20.5zM0 375q0 17 13 21t62 4
t62 -4t13 -21t-13 -21t-62 -4t-62 4t-13 21zM0 475q0 15 15 19q22 6 160 6q151 0 167 -9q8 -4 8 -16q0 -15 -15 -19q-22 -6 -160 -6q-151 0 -167 9q-8 4 -8 16zM0 575q0 16 9.5 20.5t40.5 4.5t40.5 -4.5t9.5 -20.5t-9.5 -20.5t-40.5 -4.5t-40.5 4.5t-9.5 20.5zM0 675
q0 15 15 19q24 6 185 6q173 0 191 -9q9 -4 9 -16q0 -15 -15 -19q-24 -6 -185 -6q-173 0 -191 9q-9 4 -9 16z" />
    <glyph glyph-name="six" unicode="6" 
d="M50 75q0 16 15 20q19 5 135 5q129 0 143 -9q7 -4 7 -16q0 -16 -15 -20q-19 -5 -135 -5q-129 0 -143 9q-7 4 -7 16zM300 175q0 16 9.5 20.5t40.5 4.5t40.5 -4.5t9.5 -20.5t-9.5 -20.5t-40.5 -4.5t-40.5 4.5t-9.5 20.5zM0 175q0 16 9.5 20.5t40.5 4.5t40.5 -4.5t9.5 -20.5
t-9.5 -20.5t-40.5 -4.5t-40.5 4.5t-9.5 20.5zM300 275q0 16 9.5 20.5t40.5 4.5t40.5 -4.5t9.5 -20.5t-9.5 -20.5t-40.5 -4.5t-40.5 4.5t-9.5 20.5zM0 275q0 17 13 21t62 4t62 -4t13 -21t-13 -21t-62 -4t-62 4t-13 21zM0 375q0 15 15 19q22 6 160 6q151 0 167 -9q8 -4 8 -16
q0 -15 -15 -19q-22 -6 -160 -6q-151 0 -167 9q-8 4 -8 16zM0 475q0 16 9.5 20.5t40.5 4.5t40.5 -4.5t9.5 -20.5t-9.5 -20.5t-40.5 -4.5t-40.5 4.5t-9.5 20.5zM50 575q0 16 9.5 20.5t40.5 4.5t40.5 -4.5t9.5 -20.5t-9.5 -20.5t-40.5 -4.5t-40.5 4.5t-9.5 20.5zM100 675
q0 9 2.5 13.5t17 7.5t36.5 3.5t69 0.5t69 -0.5t36.5 -3.5t17 -7.5t2.5 -13.5t-2.5 -13.5t-17 -7.5t-36.5 -3.5t-69 -0.5t-69 0.5t-36.5 3.5t-17 7.5t-2.5 13.5z" />
    <glyph glyph-name="seven" unicode="7" 
d="M100 75q0 16 9.5 20.5t40.5 4.5t40.5 -4.5t9.5 -20.5t-9.5 -20.5t-40.5 -4.5t-40.5 4.5t-9.5 20.5zM100 175q0 16 9.5 20.5t40.5 4.5t40.5 -4.5t9.5 -20.5t-9.5 -20.5t-40.5 -4.5t-40.5 4.5t-9.5 20.5zM150 275q0 16 9.5 20.5t40.5 4.5t40.5 -4.5t9.5 -20.5t-9.5 -20.5
t-40.5 -4.5t-40.5 4.5t-9.5 20.5zM200 375q0 16 9.5 20.5t40.5 4.5t40.5 -4.5t9.5 -20.5t-9.5 -20.5t-40.5 -4.5t-40.5 4.5t-9.5 20.5zM250 475q0 16 9.5 20.5t40.5 4.5t40.5 -4.5t9.5 -20.5t-9.5 -20.5t-40.5 -4.5t-40.5 4.5t-9.5 20.5zM300 575q0 16 9.5 20.5t40.5 4.5
t40.5 -4.5t9.5 -20.5t-9.5 -20.5t-40.5 -4.5t-40.5 4.5t-9.5 20.5zM0 675q0 15 15 19q24 6 185 6q173 0 191 -9q9 -4 9 -16q0 -15 -15 -19q-24 -6 -185 -6q-173 0 -191 9q-9 4 -9 16z" />
    <glyph glyph-name="eight" unicode="8" 
d="M50 75q0 16 15 20q19 5 135 5q129 0 143 -9q7 -4 7 -16q0 -16 -15 -20q-19 -5 -135 -5q-129 0 -143 9q-7 4 -7 16zM300 175q0 16 9.5 20.5t40.5 4.5t40.5 -4.5t9.5 -20.5t-9.5 -20.5t-40.5 -4.5t-40.5 4.5t-9.5 20.5zM0 175q0 16 9.5 20.5t40.5 4.5t40.5 -4.5t9.5 -20.5
t-9.5 -20.5t-40.5 -4.5t-40.5 4.5t-9.5 20.5zM300 275q0 16 9.5 20.5t40.5 4.5t40.5 -4.5t9.5 -20.5t-9.5 -20.5t-40.5 -4.5t-40.5 4.5t-9.5 20.5zM0 275q0 16 9.5 20.5t40.5 4.5t40.5 -4.5t9.5 -20.5t-9.5 -20.5t-40.5 -4.5t-40.5 4.5t-9.5 20.5zM50 375q0 16 15 20
q19 5 135 5q129 0 143 -9q7 -4 7 -16q0 -16 -15 -20q-19 -5 -135 -5q-129 0 -143 9q-7 4 -7 16zM300 475q0 16 9.5 20.5t40.5 4.5t40.5 -4.5t9.5 -20.5t-9.5 -20.5t-40.5 -4.5t-40.5 4.5t-9.5 20.5zM0 475q0 16 9.5 20.5t40.5 4.5t40.5 -4.5t9.5 -20.5t-9.5 -20.5
t-40.5 -4.5t-40.5 4.5t-9.5 20.5zM300 575q0 16 9.5 20.5t40.5 4.5t40.5 -4.5t9.5 -20.5t-9.5 -20.5t-40.5 -4.5t-40.5 4.5t-9.5 20.5zM0 575q0 16 9.5 20.5t40.5 4.5t40.5 -4.5t9.5 -20.5t-9.5 -20.5t-40.5 -4.5t-40.5 4.5t-9.5 20.5zM50 675q0 16 15 20q19 5 135 5
q129 0 143 -9q7 -4 7 -16q0 -16 -15 -20q-19 -5 -135 -5q-129 0 -143 9q-7 4 -7 16z" />
    <glyph glyph-name="nine" unicode="9" 
d="M50 75q0 9 2.5 13.5t17 7.5t36.5 3.5t69 0.5t69 -0.5t36.5 -3.5t17 -7.5t2.5 -13.5t-2.5 -13.5t-17 -7.5t-36.5 -3.5t-69 -0.5t-69 0.5t-36.5 3.5t-17 7.5t-2.5 13.5zM250 175q0 16 9.5 20.5t40.5 4.5t40.5 -4.5t9.5 -20.5t-9.5 -20.5t-40.5 -4.5t-40.5 4.5t-9.5 20.5z
M300 275q0 16 9.5 20.5t40.5 4.5t40.5 -4.5t9.5 -20.5t-9.5 -20.5t-40.5 -4.5t-40.5 4.5t-9.5 20.5zM50 375q0 15 15 19q22 6 160 6q151 0 167 -9q8 -4 8 -16q0 -15 -15 -19q-22 -6 -160 -6q-151 0 -167 9q-8 4 -8 16zM250 475q0 17 13 21t62 4q50 0 62.5 -4t12.5 -21
t-12.5 -21t-62.5 -4q-49 0 -62 4t-13 21zM0 475q0 16 9.5 20.5t40.5 4.5t40.5 -4.5t9.5 -20.5t-9.5 -20.5t-40.5 -4.5t-40.5 4.5t-9.5 20.5zM300 575q0 16 9.5 20.5t40.5 4.5t40.5 -4.5t9.5 -20.5t-9.5 -20.5t-40.5 -4.5t-40.5 4.5t-9.5 20.5zM0 575q0 16 9.5 20.5t40.5 4.5
t40.5 -4.5t9.5 -20.5t-9.5 -20.5t-40.5 -4.5t-40.5 4.5t-9.5 20.5zM50 675q0 16 15 20q19 5 135 5q129 0 143 -9q7 -4 7 -16q0 -16 -15 -20q-19 -5 -135 -5q-129 0 -143 9q-7 4 -7 16z" />
    <glyph glyph-name="colon" unicode=":" 
d="M100 75q0 17 13 21t62 4t62 -4t13 -21t-13 -21t-62 -4t-62 4t-13 21zM100 175q0 17 13 21t62 4t62 -4t13 -21t-13 -21t-62 -4t-62 4t-13 21zM100 475q0 17 13 21t62 4t62 -4t13 -21t-13 -21t-62 -4t-62 4t-13 21zM100 575q0 17 13 21t62 4t62 -4t13 -21t-13 -21t-62 -4
t-62 4t-13 21z" />
    <glyph glyph-name="semicolon" unicode=";" 
d="M50 -25q0 16 9.5 20.5t40.5 4.5t40.5 -4.5t9.5 -20.5t-9.5 -20.5t-40.5 -4.5t-40.5 4.5t-9.5 20.5zM100 75q0 16 9.5 20.5t40.5 4.5t40.5 -4.5t9.5 -20.5t-9.5 -20.5t-40.5 -4.5t-40.5 4.5t-9.5 20.5zM100 175q0 17 13 21t62 4t62 -4t13 -21t-13 -21t-62 -4t-62 4t-13 21
zM100 475q0 17 13 21t62 4t62 -4t13 -21t-13 -21t-62 -4t-62 4t-13 21zM100 575q0 17 13 21t62 4t62 -4t13 -21t-13 -21t-62 -4t-62 4t-13 21z" />
    <glyph glyph-name="less" unicode="&#x3c;" 
d="M300 75q0 16 9.5 20.5t40.5 4.5t40.5 -4.5t9.5 -20.5t-9.5 -20.5t-40.5 -4.5t-40.5 4.5t-9.5 20.5zM200 175q0 16 9.5 20.5t40.5 4.5t40.5 -4.5t9.5 -20.5t-9.5 -20.5t-40.5 -4.5t-40.5 4.5t-9.5 20.5zM100 275q0 16 9.5 20.5t40.5 4.5t40.5 -4.5t9.5 -20.5t-9.5 -20.5
t-40.5 -4.5t-40.5 4.5t-9.5 20.5zM0 375q0 16 9.5 20.5t40.5 4.5t40.5 -4.5t9.5 -20.5t-9.5 -20.5t-40.5 -4.5t-40.5 4.5t-9.5 20.5zM100 475q0 16 9.5 20.5t40.5 4.5t40.5 -4.5t9.5 -20.5t-9.5 -20.5t-40.5 -4.5t-40.5 4.5t-9.5 20.5zM200 575q0 16 9.5 20.5t40.5 4.5
t40.5 -4.5t9.5 -20.5t-9.5 -20.5t-40.5 -4.5t-40.5 4.5t-9.5 20.5zM300 675q0 16 9.5 20.5t40.5 4.5t40.5 -4.5t9.5 -20.5t-9.5 -20.5t-40.5 -4.5t-40.5 4.5t-9.5 20.5z" />
    <glyph glyph-name="equal" unicode="=" 
d="M0 275q0 15 15 19q24 6 185 6q173 0 191 -9q9 -4 9 -16q0 -15 -15 -19q-24 -6 -185 -6q-173 0 -191 9q-9 4 -9 16zM0 475q0 15 15 19q24 6 185 6q173 0 191 -9q9 -4 9 -16q0 -15 -15 -19q-24 -6 -185 -6q-173 0 -191 9q-9 4 -9 16z" />
    <glyph glyph-name="greater" unicode="&#x3e;" 
d="M0 75q0 16 9.5 20.5t40.5 4.5t40.5 -4.5t9.5 -20.5t-9.5 -20.5t-40.5 -4.5t-40.5 4.5t-9.5 20.5zM100 175q0 16 9.5 20.5t40.5 4.5t40.5 -4.5t9.5 -20.5t-9.5 -20.5t-40.5 -4.5t-40.5 4.5t-9.5 20.5zM200 275q0 16 9.5 20.5t40.5 4.5t40.5 -4.5t9.5 -20.5t-9.5 -20.5
t-40.5 -4.5t-40.5 4.5t-9.5 20.5zM300 375q0 16 9.5 20.5t40.5 4.5t40.5 -4.5t9.5 -20.5t-9.5 -20.5t-40.5 -4.5t-40.5 4.5t-9.5 20.5zM200 475q0 16 9.5 20.5t40.5 4.5t40.5 -4.5t9.5 -20.5t-9.5 -20.5t-40.5 -4.5t-40.5 4.5t-9.5 20.5zM100 575q0 16 9.5 20.5t40.5 4.5
t40.5 -4.5t9.5 -20.5t-9.5 -20.5t-40.5 -4.5t-40.5 4.5t-9.5 20.5zM0 675q0 16 9.5 20.5t40.5 4.5t40.5 -4.5t9.5 -20.5t-9.5 -20.5t-40.5 -4.5t-40.5 4.5t-9.5 20.5z" />
    <glyph glyph-name="question" unicode="?" 
d="M150 75q0 16 9.5 20.5t40.5 4.5t40.5 -4.5t9.5 -20.5t-9.5 -20.5t-40.5 -4.5t-40.5 4.5t-9.5 20.5zM150 275q0 16 9.5 20.5t40.5 4.5t40.5 -4.5t9.5 -20.5t-9.5 -20.5t-40.5 -4.5t-40.5 4.5t-9.5 20.5zM150 375q0 16 9.5 20.5t40.5 4.5t40.5 -4.5t9.5 -20.5t-9.5 -20.5
t-40.5 -4.5t-40.5 4.5t-9.5 20.5zM200 475q0 17 13 21t62 4t62 -4t13 -21t-13 -21t-62 -4t-62 4t-13 21zM300 575q0 16 9.5 20.5t40.5 4.5t40.5 -4.5t9.5 -20.5t-9.5 -20.5t-40.5 -4.5t-40.5 4.5t-9.5 20.5zM0 575q0 16 9.5 20.5t40.5 4.5t40.5 -4.5t9.5 -20.5t-9.5 -20.5
t-40.5 -4.5t-40.5 4.5t-9.5 20.5zM50 675q0 16 15 20q19 5 135 5q129 0 143 -9q7 -4 7 -16q0 -16 -15 -20q-19 -5 -135 -5q-129 0 -143 9q-7 4 -7 16z" />
    <glyph glyph-name="at" unicode="@" 
d="M50 75q0 16 15 20q19 5 135 5q129 0 143 -9q7 -4 7 -16q0 -16 -15 -20q-19 -5 -135 -5q-129 0 -143 9q-7 4 -7 16zM0 175q0 16 9.5 20.5t40.5 4.5t40.5 -4.5t9.5 -20.5t-9.5 -20.5t-40.5 -4.5t-40.5 4.5t-9.5 20.5zM150 275q0 9 2.5 13.5t17 7.5t36.5 3.5t69 0.5t69 -0.5
t36.5 -3.5t17 -7.5t2.5 -13.5t-2.5 -13.5t-17 -7.5t-36.5 -3.5t-69 -0.5t-69 0.5t-36.5 3.5t-17 7.5t-2.5 13.5zM0 275q0 16 9.5 20.5t40.5 4.5t40.5 -4.5t9.5 -20.5t-9.5 -20.5t-40.5 -4.5t-40.5 4.5t-9.5 20.5zM250 375q0 17 13 21t62 4q50 0 62.5 -4t12.5 -21t-12.5 -21
t-62.5 -4q-49 0 -62 4t-13 21zM0 375q0 17 16 21t84 4t84 -4t16 -21t-16 -21t-84 -4t-84 4t-16 21zM150 475q0 9 2.5 13.5t17 7.5t36.5 3.5t69 0.5t69 -0.5t36.5 -3.5t17 -7.5t2.5 -13.5t-2.5 -13.5t-17 -7.5t-36.5 -3.5t-69 -0.5t-69 0.5t-36.5 3.5t-17 7.5t-2.5 13.5z
M0 475q0 16 9.5 20.5t40.5 4.5t40.5 -4.5t9.5 -20.5t-9.5 -20.5t-40.5 -4.5t-40.5 4.5t-9.5 20.5zM300 575q0 16 9.5 20.5t40.5 4.5t40.5 -4.5t9.5 -20.5t-9.5 -20.5t-40.5 -4.5t-40.5 4.5t-9.5 20.5zM0 575q0 16 9.5 20.5t40.5 4.5t40.5 -4.5t9.5 -20.5t-9.5 -20.5
t-40.5 -4.5t-40.5 4.5t-9.5 20.5zM50 675q0 16 15 20q19 5 135 5q129 0 143 -9q7 -4 7 -16q0 -16 -15 -20q-19 -5 -135 -5q-129 0 -143 9q-7 4 -7 16z" />
    <glyph glyph-name="A" unicode="A" 
d="M300 75q0 16 9.5 20.5t40.5 4.5t40.5 -4.5t9.5 -20.5t-9.5 -20.5t-40.5 -4.5t-40.5 4.5t-9.5 20.5zM0 75q0 16 9.5 20.5t40.5 4.5t40.5 -4.5t9.5 -20.5t-9.5 -20.5t-40.5 -4.5t-40.5 4.5t-9.5 20.5zM300 175q0 16 9.5 20.5t40.5 4.5t40.5 -4.5t9.5 -20.5t-9.5 -20.5
t-40.5 -4.5t-40.5 4.5t-9.5 20.5zM0 175q0 16 9.5 20.5t40.5 4.5t40.5 -4.5t9.5 -20.5t-9.5 -20.5t-40.5 -4.5t-40.5 4.5t-9.5 20.5zM0 275q0 15 15 19q24 6 185 6q173 0 191 -9q9 -4 9 -16q0 -15 -15 -19q-24 -6 -185 -6q-173 0 -191 9q-9 4 -9 16zM300 375q0 16 9.5 20.5
t40.5 4.5t40.5 -4.5t9.5 -20.5t-9.5 -20.5t-40.5 -4.5t-40.5 4.5t-9.5 20.5zM0 375q0 16 9.5 20.5t40.5 4.5t40.5 -4.5t9.5 -20.5t-9.5 -20.5t-40.5 -4.5t-40.5 4.5t-9.5 20.5zM250 475q0 16 9.5 20.5t40.5 4.5t40.5 -4.5t9.5 -20.5t-9.5 -20.5t-40.5 -4.5t-40.5 4.5
t-9.5 20.5zM50 475q0 16 9.5 20.5t40.5 4.5t40.5 -4.5t9.5 -20.5t-9.5 -20.5t-40.5 -4.5t-40.5 4.5t-9.5 20.5zM100 575q0 17 16 21t84 4t84 -4t16 -21t-16 -21t-84 -4t-84 4t-16 21zM150 675q0 16 9.5 20.5t40.5 4.5t40.5 -4.5t9.5 -20.5t-9.5 -20.5t-40.5 -4.5t-40.5 4.5
t-9.5 20.5z" />
    <glyph glyph-name="B" unicode="B" 
d="M0 75q0 15 15 19q22 6 160 6q151 0 167 -9q8 -4 8 -16q0 -15 -15 -19q-22 -6 -160 -6q-151 0 -167 9q-8 4 -8 16zM300 175q0 16 9.5 20.5t40.5 4.5t40.5 -4.5t9.5 -20.5t-9.5 -20.5t-40.5 -4.5t-40.5 4.5t-9.5 20.5zM50 175q0 16 9.5 20.5t40.5 4.5t40.5 -4.5t9.5 -20.5
t-9.5 -20.5t-40.5 -4.5t-40.5 4.5t-9.5 20.5zM300 275q0 16 9.5 20.5t40.5 4.5t40.5 -4.5t9.5 -20.5t-9.5 -20.5t-40.5 -4.5t-40.5 4.5t-9.5 20.5zM50 275q0 16 9.5 20.5t40.5 4.5t40.5 -4.5t9.5 -20.5t-9.5 -20.5t-40.5 -4.5t-40.5 4.5t-9.5 20.5zM50 375q0 16 15 20
q19 5 135 5q129 0 143 -9q7 -4 7 -16q0 -16 -15 -20q-19 -5 -135 -5q-129 0 -143 9q-7 4 -7 16zM300 475q0 16 9.5 20.5t40.5 4.5t40.5 -4.5t9.5 -20.5t-9.5 -20.5t-40.5 -4.5t-40.5 4.5t-9.5 20.5zM50 475q0 16 9.5 20.5t40.5 4.5t40.5 -4.5t9.5 -20.5t-9.5 -20.5
t-40.5 -4.5t-40.5 4.5t-9.5 20.5zM300 575q0 16 9.5 20.5t40.5 4.5t40.5 -4.5t9.5 -20.5t-9.5 -20.5t-40.5 -4.5t-40.5 4.5t-9.5 20.5zM50 575q0 16 9.5 20.5t40.5 4.5t40.5 -4.5t9.5 -20.5t-9.5 -20.5t-40.5 -4.5t-40.5 4.5t-9.5 20.5zM0 675q0 15 15 19q22 6 160 6
q151 0 167 -9q8 -4 8 -16q0 -15 -15 -19q-22 -6 -160 -6q-151 0 -167 9q-8 4 -8 16z" />
    <glyph glyph-name="C" unicode="C" 
d="M100 75q0 9 2.5 13.5t17 7.5t36.5 3.5t69 0.5t69 -0.5t36.5 -3.5t17 -7.5t2.5 -13.5t-2.5 -13.5t-17 -7.5t-36.5 -3.5t-69 -0.5t-69 0.5t-36.5 3.5t-17 7.5t-2.5 13.5zM300 175q0 16 9.5 20.5t40.5 4.5t40.5 -4.5t9.5 -20.5t-9.5 -20.5t-40.5 -4.5t-40.5 4.5t-9.5 20.5z
M50 175q0 16 9.5 20.5t40.5 4.5t40.5 -4.5t9.5 -20.5t-9.5 -20.5t-40.5 -4.5t-40.5 4.5t-9.5 20.5zM0 275q0 16 9.5 20.5t40.5 4.5t40.5 -4.5t9.5 -20.5t-9.5 -20.5t-40.5 -4.5t-40.5 4.5t-9.5 20.5zM0 375q0 16 9.5 20.5t40.5 4.5t40.5 -4.5t9.5 -20.5t-9.5 -20.5
t-40.5 -4.5t-40.5 4.5t-9.5 20.5zM0 475q0 16 9.5 20.5t40.5 4.5t40.5 -4.5t9.5 -20.5t-9.5 -20.5t-40.5 -4.5t-40.5 4.5t-9.5 20.5zM300 575q0 16 9.5 20.5t40.5 4.5t40.5 -4.5t9.5 -20.5t-9.5 -20.5t-40.5 -4.5t-40.5 4.5t-9.5 20.5zM50 575q0 16 9.5 20.5t40.5 4.5
t40.5 -4.5t9.5 -20.5t-9.5 -20.5t-40.5 -4.5t-40.5 4.5t-9.5 20.5zM100 675q0 9 2.5 13.5t17 7.5t36.5 3.5t69 0.5t69 -0.5t36.5 -3.5t17 -7.5t2.5 -13.5t-2.5 -13.5t-17 -7.5t-36.5 -3.5t-69 -0.5t-69 0.5t-36.5 3.5t-17 7.5t-2.5 13.5z" />
    <glyph glyph-name="D" unicode="D" 
d="M0 75q0 16 15 20q19 5 135 5q129 0 143 -9q7 -4 7 -16q0 -16 -15 -20q-19 -5 -135 -5q-129 0 -143 9q-7 4 -7 16zM250 175q0 16 9.5 20.5t40.5 4.5t40.5 -4.5t9.5 -20.5t-9.5 -20.5t-40.5 -4.5t-40.5 4.5t-9.5 20.5zM50 175q0 16 9.5 20.5t40.5 4.5t40.5 -4.5t9.5 -20.5
t-9.5 -20.5t-40.5 -4.5t-40.5 4.5t-9.5 20.5zM300 275q0 16 9.5 20.5t40.5 4.5t40.5 -4.5t9.5 -20.5t-9.5 -20.5t-40.5 -4.5t-40.5 4.5t-9.5 20.5zM50 275q0 16 9.5 20.5t40.5 4.5t40.5 -4.5t9.5 -20.5t-9.5 -20.5t-40.5 -4.5t-40.5 4.5t-9.5 20.5zM300 375q0 16 9.5 20.5
t40.5 4.5t40.5 -4.5t9.5 -20.5t-9.5 -20.5t-40.5 -4.5t-40.5 4.5t-9.5 20.5zM50 375q0 16 9.5 20.5t40.5 4.5t40.5 -4.5t9.5 -20.5t-9.5 -20.5t-40.5 -4.5t-40.5 4.5t-9.5 20.5zM300 475q0 16 9.5 20.5t40.5 4.5t40.5 -4.5t9.5 -20.5t-9.5 -20.5t-40.5 -4.5t-40.5 4.5
t-9.5 20.5zM50 475q0 16 9.5 20.5t40.5 4.5t40.5 -4.5t9.5 -20.5t-9.5 -20.5t-40.5 -4.5t-40.5 4.5t-9.5 20.5zM250 575q0 16 9.5 20.5t40.5 4.5t40.5 -4.5t9.5 -20.5t-9.5 -20.5t-40.5 -4.5t-40.5 4.5t-9.5 20.5zM50 575q0 16 9.5 20.5t40.5 4.5t40.5 -4.5t9.5 -20.5
t-9.5 -20.5t-40.5 -4.5t-40.5 4.5t-9.5 20.5zM0 675q0 16 15 20q19 5 135 5q129 0 143 -9q7 -4 7 -16q0 -16 -15 -20q-19 -5 -135 -5q-129 0 -143 9q-7 4 -7 16z" />
    <glyph glyph-name="E" unicode="E" 
d="M0 75q0 15 15 19q24 6 185 6q173 0 191 -9q9 -4 9 -16q0 -15 -15 -19q-24 -6 -185 -6q-173 0 -191 9q-9 4 -9 16zM0 175q0 16 9.5 20.5t40.5 4.5t40.5 -4.5t9.5 -20.5t-9.5 -20.5t-40.5 -4.5t-40.5 4.5t-9.5 20.5zM0 275q0 16 9.5 20.5t40.5 4.5t40.5 -4.5t9.5 -20.5
t-9.5 -20.5t-40.5 -4.5t-40.5 4.5t-9.5 20.5zM0 375q0 16 15 20q19 5 135 5q129 0 143 -9q7 -4 7 -16q0 -16 -15 -20q-19 -5 -135 -5q-129 0 -143 9q-7 4 -7 16zM0 475q0 16 9.5 20.5t40.5 4.5t40.5 -4.5t9.5 -20.5t-9.5 -20.5t-40.5 -4.5t-40.5 4.5t-9.5 20.5zM0 575
q0 16 9.5 20.5t40.5 4.5t40.5 -4.5t9.5 -20.5t-9.5 -20.5t-40.5 -4.5t-40.5 4.5t-9.5 20.5zM0 675q0 15 15 19q24 6 185 6q173 0 191 -9q9 -4 9 -16q0 -15 -15 -19q-24 -6 -185 -6q-173 0 -191 9q-9 4 -9 16z" />
    <glyph glyph-name="F" unicode="F" 
d="M0 75q0 16 9.5 20.5t40.5 4.5t40.5 -4.5t9.5 -20.5t-9.5 -20.5t-40.5 -4.5t-40.5 4.5t-9.5 20.5zM0 175q0 16 9.5 20.5t40.5 4.5t40.5 -4.5t9.5 -20.5t-9.5 -20.5t-40.5 -4.5t-40.5 4.5t-9.5 20.5zM0 275q0 16 9.5 20.5t40.5 4.5t40.5 -4.5t9.5 -20.5t-9.5 -20.5
t-40.5 -4.5t-40.5 4.5t-9.5 20.5zM0 375q0 16 15 20q19 5 135 5q129 0 143 -9q7 -4 7 -16q0 -16 -15 -20q-19 -5 -135 -5q-129 0 -143 9q-7 4 -7 16zM0 475q0 16 9.5 20.5t40.5 4.5t40.5 -4.5t9.5 -20.5t-9.5 -20.5t-40.5 -4.5t-40.5 4.5t-9.5 20.5zM0 575q0 16 9.5 20.5
t40.5 4.5t40.5 -4.5t9.5 -20.5t-9.5 -20.5t-40.5 -4.5t-40.5 4.5t-9.5 20.5zM0 675q0 15 15 19q24 6 185 6q173 0 191 -9q9 -4 9 -16q0 -15 -15 -19q-24 -6 -185 -6q-173 0 -191 9q-9 4 -9 16z" />
    <glyph glyph-name="G" unicode="G" 
d="M100 75q0 9 2.5 13.5t17 7.5t36.5 3.5t69 0.5t69 -0.5t36.5 -3.5t17 -7.5t2.5 -13.5t-2.5 -13.5t-17 -7.5t-36.5 -3.5t-69 -0.5t-69 0.5t-36.5 3.5t-17 7.5t-2.5 13.5zM300 175q0 16 9.5 20.5t40.5 4.5t40.5 -4.5t9.5 -20.5t-9.5 -20.5t-40.5 -4.5t-40.5 4.5t-9.5 20.5z
M50 175q0 16 9.5 20.5t40.5 4.5t40.5 -4.5t9.5 -20.5t-9.5 -20.5t-40.5 -4.5t-40.5 4.5t-9.5 20.5zM200 275q0 17 16 21t84 4t84 -4t16 -21t-16 -21t-84 -4t-84 4t-16 21zM0 275q0 16 9.5 20.5t40.5 4.5t40.5 -4.5t9.5 -20.5t-9.5 -20.5t-40.5 -4.5t-40.5 4.5t-9.5 20.5z
M0 375q0 16 9.5 20.5t40.5 4.5t40.5 -4.5t9.5 -20.5t-9.5 -20.5t-40.5 -4.5t-40.5 4.5t-9.5 20.5zM0 475q0 16 9.5 20.5t40.5 4.5t40.5 -4.5t9.5 -20.5t-9.5 -20.5t-40.5 -4.5t-40.5 4.5t-9.5 20.5zM300 575q0 16 9.5 20.5t40.5 4.5t40.5 -4.5t9.5 -20.5t-9.5 -20.5
t-40.5 -4.5t-40.5 4.5t-9.5 20.5zM50 575q0 16 9.5 20.5t40.5 4.5t40.5 -4.5t9.5 -20.5t-9.5 -20.5t-40.5 -4.5t-40.5 4.5t-9.5 20.5zM100 675q0 9 2.5 13.5t17 7.5t36.5 3.5t69 0.5t69 -0.5t36.5 -3.5t17 -7.5t2.5 -13.5t-2.5 -13.5t-17 -7.5t-36.5 -3.5t-69 -0.5t-69 0.5
t-36.5 3.5t-17 7.5t-2.5 13.5z" />
    <glyph glyph-name="H" unicode="H" 
d="M300 75q0 16 9.5 20.5t40.5 4.5t40.5 -4.5t9.5 -20.5t-9.5 -20.5t-40.5 -4.5t-40.5 4.5t-9.5 20.5zM0 75q0 16 9.5 20.5t40.5 4.5t40.5 -4.5t9.5 -20.5t-9.5 -20.5t-40.5 -4.5t-40.5 4.5t-9.5 20.5zM300 175q0 16 9.5 20.5t40.5 4.5t40.5 -4.5t9.5 -20.5t-9.5 -20.5
t-40.5 -4.5t-40.5 4.5t-9.5 20.5zM0 175q0 16 9.5 20.5t40.5 4.5t40.5 -4.5t9.5 -20.5t-9.5 -20.5t-40.5 -4.5t-40.5 4.5t-9.5 20.5zM300 275q0 16 9.5 20.5t40.5 4.5t40.5 -4.5t9.5 -20.5t-9.5 -20.5t-40.5 -4.5t-40.5 4.5t-9.5 20.5zM0 275q0 16 9.5 20.5t40.5 4.5
t40.5 -4.5t9.5 -20.5t-9.5 -20.5t-40.5 -4.5t-40.5 4.5t-9.5 20.5zM0 375q0 15 15 19q24 6 185 6q173 0 191 -9q9 -4 9 -16q0 -15 -15 -19q-24 -6 -185 -6q-173 0 -191 9q-9 4 -9 16zM300 475q0 16 9.5 20.5t40.5 4.5t40.5 -4.5t9.5 -20.5t-9.5 -20.5t-40.5 -4.5t-40.5 4.5
t-9.5 20.5zM0 475q0 16 9.5 20.5t40.5 4.5t40.5 -4.5t9.5 -20.5t-9.5 -20.5t-40.5 -4.5t-40.5 4.5t-9.5 20.5zM300 575q0 16 9.5 20.5t40.5 4.5t40.5 -4.5t9.5 -20.5t-9.5 -20.5t-40.5 -4.5t-40.5 4.5t-9.5 20.5zM0 575q0 16 9.5 20.5t40.5 4.5t40.5 -4.5t9.5 -20.5
t-9.5 -20.5t-40.5 -4.5t-40.5 4.5t-9.5 20.5zM300 675q0 16 9.5 20.5t40.5 4.5t40.5 -4.5t9.5 -20.5t-9.5 -20.5t-40.5 -4.5t-40.5 4.5t-9.5 20.5zM0 675q0 16 9.5 20.5t40.5 4.5t40.5 -4.5t9.5 -20.5t-9.5 -20.5t-40.5 -4.5t-40.5 4.5t-9.5 20.5z" />
    <glyph glyph-name="I" unicode="I" 
d="M50 75q0 16 15 20q19 5 135 5q129 0 143 -9q7 -4 7 -16q0 -16 -15 -20q-19 -5 -135 -5q-129 0 -143 9q-7 4 -7 16zM150 175q0 16 9.5 20.5t40.5 4.5t40.5 -4.5t9.5 -20.5t-9.5 -20.5t-40.5 -4.5t-40.5 4.5t-9.5 20.5zM150 275q0 16 9.5 20.5t40.5 4.5t40.5 -4.5
t9.5 -20.5t-9.5 -20.5t-40.5 -4.5t-40.5 4.5t-9.5 20.5zM150 375q0 16 9.5 20.5t40.5 4.5t40.5 -4.5t9.5 -20.5t-9.5 -20.5t-40.5 -4.5t-40.5 4.5t-9.5 20.5zM150 475q0 16 9.5 20.5t40.5 4.5t40.5 -4.5t9.5 -20.5t-9.5 -20.5t-40.5 -4.5t-40.5 4.5t-9.5 20.5zM150 575
q0 16 9.5 20.5t40.5 4.5t40.5 -4.5t9.5 -20.5t-9.5 -20.5t-40.5 -4.5t-40.5 4.5t-9.5 20.5zM50 675q0 16 15 20q19 5 135 5q129 0 143 -9q7 -4 7 -16q0 -16 -15 -20q-19 -5 -135 -5q-129 0 -143 9q-7 4 -7 16z" />
    <glyph glyph-name="J" unicode="J" 
d="M50 75q0 9 2.5 13.5t17 7.5t36.5 3.5t69 0.5t69 -0.5t36.5 -3.5t17 -7.5t2.5 -13.5t-2.5 -13.5t-17 -7.5t-36.5 -3.5t-69 -0.5t-69 0.5t-36.5 3.5t-17 7.5t-2.5 13.5zM250 175q0 16 9.5 20.5t40.5 4.5t40.5 -4.5t9.5 -20.5t-9.5 -20.5t-40.5 -4.5t-40.5 4.5t-9.5 20.5z
M0 175q0 16 9.5 20.5t40.5 4.5t40.5 -4.5t9.5 -20.5t-9.5 -20.5t-40.5 -4.5t-40.5 4.5t-9.5 20.5zM250 275q0 16 9.5 20.5t40.5 4.5t40.5 -4.5t9.5 -20.5t-9.5 -20.5t-40.5 -4.5t-40.5 4.5t-9.5 20.5zM250 375q0 16 9.5 20.5t40.5 4.5t40.5 -4.5t9.5 -20.5t-9.5 -20.5
t-40.5 -4.5t-40.5 4.5t-9.5 20.5zM250 475q0 16 9.5 20.5t40.5 4.5t40.5 -4.5t9.5 -20.5t-9.5 -20.5t-40.5 -4.5t-40.5 4.5t-9.5 20.5zM250 575q0 16 9.5 20.5t40.5 4.5t40.5 -4.5t9.5 -20.5t-9.5 -20.5t-40.5 -4.5t-40.5 4.5t-9.5 20.5zM200 675q0 17 16 21t84 4t84 -4
t16 -21t-16 -21t-84 -4t-84 4t-16 21z" />
    <glyph glyph-name="K" unicode="K" 
d="M300 75q0 16 9.5 20.5t40.5 4.5t40.5 -4.5t9.5 -20.5t-9.5 -20.5t-40.5 -4.5t-40.5 4.5t-9.5 20.5zM0 75q0 16 9.5 20.5t40.5 4.5t40.5 -4.5t9.5 -20.5t-9.5 -20.5t-40.5 -4.5t-40.5 4.5t-9.5 20.5zM200 175q0 17 13 21t62 4t62 -4t13 -21t-13 -21t-62 -4t-62 4t-13 21z
M0 175q0 16 9.5 20.5t40.5 4.5t40.5 -4.5t9.5 -20.5t-9.5 -20.5t-40.5 -4.5t-40.5 4.5t-9.5 20.5zM0 275q0 9 2.5 13.5t17 7.5t36.5 3.5t69 0.5t69 -0.5t36.5 -3.5t17 -7.5t2.5 -13.5t-2.5 -13.5t-17 -7.5t-36.5 -3.5t-69 -0.5t-69 0.5t-36.5 3.5t-17 7.5t-2.5 13.5zM0 375
q0 17 13 21t62 4t62 -4t13 -21t-13 -21t-62 -4t-62 4t-13 21zM0 475q0 9 2.5 13.5t17 7.5t36.5 3.5t69 0.5t69 -0.5t36.5 -3.5t17 -7.5t2.5 -13.5t-2.5 -13.5t-17 -7.5t-36.5 -3.5t-69 -0.5t-69 0.5t-36.5 3.5t-17 7.5t-2.5 13.5zM200 575q0 17 13 21t62 4t62 -4t13 -21
t-13 -21t-62 -4t-62 4t-13 21zM0 575q0 16 9.5 20.5t40.5 4.5t40.5 -4.5t9.5 -20.5t-9.5 -20.5t-40.5 -4.5t-40.5 4.5t-9.5 20.5zM300 675q0 16 9.5 20.5t40.5 4.5t40.5 -4.5t9.5 -20.5t-9.5 -20.5t-40.5 -4.5t-40.5 4.5t-9.5 20.5zM0 675q0 16 9.5 20.5t40.5 4.5t40.5 -4.5
t9.5 -20.5t-9.5 -20.5t-40.5 -4.5t-40.5 4.5t-9.5 20.5z" />
    <glyph glyph-name="L" unicode="L" 
d="M0 75q0 15 15 19q24 6 185 6q173 0 191 -9q9 -4 9 -16q0 -15 -15 -19q-24 -6 -185 -6q-173 0 -191 9q-9 4 -9 16zM0 175q0 16 9.5 20.5t40.5 4.5t40.5 -4.5t9.5 -20.5t-9.5 -20.5t-40.5 -4.5t-40.5 4.5t-9.5 20.5zM0 275q0 16 9.5 20.5t40.5 4.5t40.5 -4.5t9.5 -20.5
t-9.5 -20.5t-40.5 -4.5t-40.5 4.5t-9.5 20.5zM0 375q0 16 9.5 20.5t40.5 4.5t40.5 -4.5t9.5 -20.5t-9.5 -20.5t-40.5 -4.5t-40.5 4.5t-9.5 20.5zM0 475q0 16 9.5 20.5t40.5 4.5t40.5 -4.5t9.5 -20.5t-9.5 -20.5t-40.5 -4.5t-40.5 4.5t-9.5 20.5zM0 575q0 16 9.5 20.5
t40.5 4.5t40.5 -4.5t9.5 -20.5t-9.5 -20.5t-40.5 -4.5t-40.5 4.5t-9.5 20.5zM0 675q0 16 9.5 20.5t40.5 4.5t40.5 -4.5t9.5 -20.5t-9.5 -20.5t-40.5 -4.5t-40.5 4.5t-9.5 20.5z" />
    <glyph glyph-name="M" unicode="M" 
d="M300 75q0 16 9.5 20.5t40.5 4.5t40.5 -4.5t9.5 -20.5t-9.5 -20.5t-40.5 -4.5t-40.5 4.5t-9.5 20.5zM0 75q0 16 9.5 20.5t40.5 4.5t40.5 -4.5t9.5 -20.5t-9.5 -20.5t-40.5 -4.5t-40.5 4.5t-9.5 20.5zM300 175q0 16 9.5 20.5t40.5 4.5t40.5 -4.5t9.5 -20.5t-9.5 -20.5
t-40.5 -4.5t-40.5 4.5t-9.5 20.5zM0 175q0 16 9.5 20.5t40.5 4.5t40.5 -4.5t9.5 -20.5t-9.5 -20.5t-40.5 -4.5t-40.5 4.5t-9.5 20.5zM300 275q0 16 9.5 20.5t40.5 4.5t40.5 -4.5t9.5 -20.5t-9.5 -20.5t-40.5 -4.5t-40.5 4.5t-9.5 20.5zM0 275q0 16 9.5 20.5t40.5 4.5
t40.5 -4.5t9.5 -20.5t-9.5 -20.5t-40.5 -4.5t-40.5 4.5t-9.5 20.5zM300 375q0 16 9.5 20.5t40.5 4.5t40.5 -4.5t9.5 -20.5t-9.5 -20.5t-40.5 -4.5t-40.5 4.5t-9.5 20.5zM150 375q0 16 9.5 20.5t40.5 4.5t40.5 -4.5t9.5 -20.5t-9.5 -20.5t-40.5 -4.5t-40.5 4.5t-9.5 20.5z
M0 375q0 16 9.5 20.5t40.5 4.5t40.5 -4.5t9.5 -20.5t-9.5 -20.5t-40.5 -4.5t-40.5 4.5t-9.5 20.5zM0 475q0 15 15 19q24 6 185 6q173 0 191 -9q9 -4 9 -16q0 -15 -15 -19q-24 -6 -185 -6q-173 0 -191 9q-9 4 -9 16zM250 575q0 17 13 21t62 4q50 0 62.5 -4t12.5 -21
t-12.5 -21t-62.5 -4q-49 0 -62 4t-13 21zM0 575q0 17 13 21t62 4t62 -4t13 -21t-13 -21t-62 -4t-62 4t-13 21zM300 675q0 16 9.5 20.5t40.5 4.5t40.5 -4.5t9.5 -20.5t-9.5 -20.5t-40.5 -4.5t-40.5 4.5t-9.5 20.5zM0 675q0 16 9.5 20.5t40.5 4.5t40.5 -4.5t9.5 -20.5
t-9.5 -20.5t-40.5 -4.5t-40.5 4.5t-9.5 20.5z" />
    <glyph glyph-name="N" unicode="N" 
d="M300 75q0 16 9.5 20.5t40.5 4.5t40.5 -4.5t9.5 -20.5t-9.5 -20.5t-40.5 -4.5t-40.5 4.5t-9.5 20.5zM0 75q0 16 9.5 20.5t40.5 4.5t40.5 -4.5t9.5 -20.5t-9.5 -20.5t-40.5 -4.5t-40.5 4.5t-9.5 20.5zM250 175q0 17 13 21t62 4q50 0 62.5 -4t12.5 -21t-12.5 -21t-62.5 -4
q-49 0 -62 4t-13 21zM0 175q0 16 9.5 20.5t40.5 4.5t40.5 -4.5t9.5 -20.5t-9.5 -20.5t-40.5 -4.5t-40.5 4.5t-9.5 20.5zM200 275q0 17 16 21t84 4t84 -4t16 -21t-16 -21t-84 -4t-84 4t-16 21zM0 275q0 16 9.5 20.5t40.5 4.5t40.5 -4.5t9.5 -20.5t-9.5 -20.5t-40.5 -4.5
t-40.5 4.5t-9.5 20.5zM300 375q0 16 9.5 20.5t40.5 4.5t40.5 -4.5t9.5 -20.5t-9.5 -20.5t-40.5 -4.5t-40.5 4.5t-9.5 20.5zM150 375q0 16 9.5 20.5t40.5 4.5t40.5 -4.5t9.5 -20.5t-9.5 -20.5t-40.5 -4.5t-40.5 4.5t-9.5 20.5zM0 375q0 16 9.5 20.5t40.5 4.5t40.5 -4.5
t9.5 -20.5t-9.5 -20.5t-40.5 -4.5t-40.5 4.5t-9.5 20.5zM300 475q0 16 9.5 20.5t40.5 4.5t40.5 -4.5t9.5 -20.5t-9.5 -20.5t-40.5 -4.5t-40.5 4.5t-9.5 20.5zM0 475q0 17 16 21t84 4t84 -4t16 -21t-16 -21t-84 -4t-84 4t-16 21zM300 575q0 16 9.5 20.5t40.5 4.5t40.5 -4.5
t9.5 -20.5t-9.5 -20.5t-40.5 -4.5t-40.5 4.5t-9.5 20.5zM0 575q0 17 13 21t62 4t62 -4t13 -21t-13 -21t-62 -4t-62 4t-13 21zM300 675q0 16 9.5 20.5t40.5 4.5t40.5 -4.5t9.5 -20.5t-9.5 -20.5t-40.5 -4.5t-40.5 4.5t-9.5 20.5zM0 675q0 16 9.5 20.5t40.5 4.5t40.5 -4.5
t9.5 -20.5t-9.5 -20.5t-40.5 -4.5t-40.5 4.5t-9.5 20.5z" />
    <glyph glyph-name="O" unicode="O" 
d="M50 75q0 16 15 20q19 5 135 5q129 0 143 -9q7 -4 7 -16q0 -16 -15 -20q-19 -5 -135 -5q-129 0 -143 9q-7 4 -7 16zM300 175q0 16 9.5 20.5t40.5 4.5t40.5 -4.5t9.5 -20.5t-9.5 -20.5t-40.5 -4.5t-40.5 4.5t-9.5 20.5zM0 175q0 16 9.5 20.5t40.5 4.5t40.5 -4.5t9.5 -20.5
t-9.5 -20.5t-40.5 -4.5t-40.5 4.5t-9.5 20.5zM300 275q0 16 9.5 20.5t40.5 4.5t40.5 -4.5t9.5 -20.5t-9.5 -20.5t-40.5 -4.5t-40.5 4.5t-9.5 20.5zM0 275q0 16 9.5 20.5t40.5 4.5t40.5 -4.5t9.5 -20.5t-9.5 -20.5t-40.5 -4.5t-40.5 4.5t-9.5 20.5zM300 375q0 16 9.5 20.5
t40.5 4.5t40.5 -4.5t9.5 -20.5t-9.5 -20.5t-40.5 -4.5t-40.5 4.5t-9.5 20.5zM0 375q0 16 9.5 20.5t40.5 4.5t40.5 -4.5t9.5 -20.5t-9.5 -20.5t-40.5 -4.5t-40.5 4.5t-9.5 20.5zM300 475q0 16 9.5 20.5t40.5 4.5t40.5 -4.5t9.5 -20.5t-9.5 -20.5t-40.5 -4.5t-40.5 4.5
t-9.5 20.5zM0 475q0 16 9.5 20.5t40.5 4.5t40.5 -4.5t9.5 -20.5t-9.5 -20.5t-40.5 -4.5t-40.5 4.5t-9.5 20.5zM300 575q0 16 9.5 20.5t40.5 4.5t40.5 -4.5t9.5 -20.5t-9.5 -20.5t-40.5 -4.5t-40.5 4.5t-9.5 20.5zM0 575q0 16 9.5 20.5t40.5 4.5t40.5 -4.5t9.5 -20.5
t-9.5 -20.5t-40.5 -4.5t-40.5 4.5t-9.5 20.5zM50 675q0 16 15 20q19 5 135 5q129 0 143 -9q7 -4 7 -16q0 -16 -15 -20q-19 -5 -135 -5q-129 0 -143 9q-7 4 -7 16z" />
    <glyph glyph-name="P" unicode="P" 
d="M0 75q0 16 9.5 20.5t40.5 4.5t40.5 -4.5t9.5 -20.5t-9.5 -20.5t-40.5 -4.5t-40.5 4.5t-9.5 20.5zM0 175q0 16 9.5 20.5t40.5 4.5t40.5 -4.5t9.5 -20.5t-9.5 -20.5t-40.5 -4.5t-40.5 4.5t-9.5 20.5zM0 275q0 16 9.5 20.5t40.5 4.5t40.5 -4.5t9.5 -20.5t-9.5 -20.5
t-40.5 -4.5t-40.5 4.5t-9.5 20.5zM0 375q0 15 15 19q22 6 160 6q151 0 167 -9q8 -4 8 -16q0 -15 -15 -19q-22 -6 -160 -6q-151 0 -167 9q-8 4 -8 16zM300 475q0 16 9.5 20.5t40.5 4.5t40.5 -4.5t9.5 -20.5t-9.5 -20.5t-40.5 -4.5t-40.5 4.5t-9.5 20.5zM0 475q0 16 9.5 20.5
t40.5 4.5t40.5 -4.5t9.5 -20.5t-9.5 -20.5t-40.5 -4.5t-40.5 4.5t-9.5 20.5zM300 575q0 16 9.5 20.5t40.5 4.5t40.5 -4.5t9.5 -20.5t-9.5 -20.5t-40.5 -4.5t-40.5 4.5t-9.5 20.5zM0 575q0 16 9.5 20.5t40.5 4.5t40.5 -4.5t9.5 -20.5t-9.5 -20.5t-40.5 -4.5t-40.5 4.5
t-9.5 20.5zM0 675q0 15 15 19q22 6 160 6q151 0 167 -9q8 -4 8 -16q0 -15 -15 -19q-22 -6 -160 -6q-151 0 -167 9q-8 4 -8 16z" />
    <glyph glyph-name="Q" unicode="Q" 
d="M50 75q0 15 15 19q22 6 160 6q151 0 167 -9q8 -4 8 -16q0 -15 -15 -19q-22 -6 -160 -6q-151 0 -167 9q-8 4 -8 16zM250 175q0 16 9.5 20.5t40.5 4.5t40.5 -4.5t9.5 -20.5t-9.5 -20.5t-40.5 -4.5t-40.5 4.5t-9.5 20.5zM0 175q0 16 9.5 20.5t40.5 4.5t40.5 -4.5t9.5 -20.5
t-9.5 -20.5t-40.5 -4.5t-40.5 4.5t-9.5 20.5zM200 275q0 17 16 21t84 4t84 -4t16 -21t-16 -21t-84 -4t-84 4t-16 21zM0 275q0 16 9.5 20.5t40.5 4.5t40.5 -4.5t9.5 -20.5t-9.5 -20.5t-40.5 -4.5t-40.5 4.5t-9.5 20.5zM300 375q0 16 9.5 20.5t40.5 4.5t40.5 -4.5t9.5 -20.5
t-9.5 -20.5t-40.5 -4.5t-40.5 4.5t-9.5 20.5zM0 375q0 16 9.5 20.5t40.5 4.5t40.5 -4.5t9.5 -20.5t-9.5 -20.5t-40.5 -4.5t-40.5 4.5t-9.5 20.5zM300 475q0 16 9.5 20.5t40.5 4.5t40.5 -4.5t9.5 -20.5t-9.5 -20.5t-40.5 -4.5t-40.5 4.5t-9.5 20.5zM0 475q0 16 9.5 20.5
t40.5 4.5t40.5 -4.5t9.5 -20.5t-9.5 -20.5t-40.5 -4.5t-40.5 4.5t-9.5 20.5zM300 575q0 16 9.5 20.5t40.5 4.5t40.5 -4.5t9.5 -20.5t-9.5 -20.5t-40.5 -4.5t-40.5 4.5t-9.5 20.5zM0 575q0 16 9.5 20.5t40.5 4.5t40.5 -4.5t9.5 -20.5t-9.5 -20.5t-40.5 -4.5t-40.5 4.5
t-9.5 20.5zM50 675q0 16 15 20q19 5 135 5q129 0 143 -9q7 -4 7 -16q0 -16 -15 -20q-19 -5 -135 -5q-129 0 -143 9q-7 4 -7 16z" />
    <glyph glyph-name="R" unicode="R" 
d="M300 75q0 16 9.5 20.5t40.5 4.5t40.5 -4.5t9.5 -20.5t-9.5 -20.5t-40.5 -4.5t-40.5 4.5t-9.5 20.5zM0 75q0 16 9.5 20.5t40.5 4.5t40.5 -4.5t9.5 -20.5t-9.5 -20.5t-40.5 -4.5t-40.5 4.5t-9.5 20.5zM250 175q0 16 9.5 20.5t40.5 4.5t40.5 -4.5t9.5 -20.5t-9.5 -20.5
t-40.5 -4.5t-40.5 4.5t-9.5 20.5zM0 175q0 16 9.5 20.5t40.5 4.5t40.5 -4.5t9.5 -20.5t-9.5 -20.5t-40.5 -4.5t-40.5 4.5t-9.5 20.5zM200 275q0 16 9.5 20.5t40.5 4.5t40.5 -4.5t9.5 -20.5t-9.5 -20.5t-40.5 -4.5t-40.5 4.5t-9.5 20.5zM0 275q0 16 9.5 20.5t40.5 4.5
t40.5 -4.5t9.5 -20.5t-9.5 -20.5t-40.5 -4.5t-40.5 4.5t-9.5 20.5zM0 375q0 15 15 19q22 6 160 6q151 0 167 -9q8 -4 8 -16q0 -15 -15 -19q-22 -6 -160 -6q-151 0 -167 9q-8 4 -8 16zM300 475q0 16 9.5 20.5t40.5 4.5t40.5 -4.5t9.5 -20.5t-9.5 -20.5t-40.5 -4.5t-40.5 4.5
t-9.5 20.5zM0 475q0 16 9.5 20.5t40.5 4.5t40.5 -4.5t9.5 -20.5t-9.5 -20.5t-40.5 -4.5t-40.5 4.5t-9.5 20.5zM300 575q0 16 9.5 20.5t40.5 4.5t40.5 -4.5t9.5 -20.5t-9.5 -20.5t-40.5 -4.5t-40.5 4.5t-9.5 20.5zM0 575q0 16 9.5 20.5t40.5 4.5t40.5 -4.5t9.5 -20.5
t-9.5 -20.5t-40.5 -4.5t-40.5 4.5t-9.5 20.5zM0 675q0 15 15 19q22 6 160 6q151 0 167 -9q8 -4 8 -16q0 -15 -15 -19q-22 -6 -160 -6q-151 0 -167 9q-8 4 -8 16z" />
    <glyph glyph-name="S" unicode="S" 
d="M50 75q0 16 15 20q19 5 135 5q129 0 143 -9q7 -4 7 -16q0 -16 -15 -20q-19 -5 -135 -5q-129 0 -143 9q-7 4 -7 16zM300 175q0 16 9.5 20.5t40.5 4.5t40.5 -4.5t9.5 -20.5t-9.5 -20.5t-40.5 -4.5t-40.5 4.5t-9.5 20.5zM0 175q0 16 9.5 20.5t40.5 4.5t40.5 -4.5t9.5 -20.5
t-9.5 -20.5t-40.5 -4.5t-40.5 4.5t-9.5 20.5zM300 275q0 16 9.5 20.5t40.5 4.5t40.5 -4.5t9.5 -20.5t-9.5 -20.5t-40.5 -4.5t-40.5 4.5t-9.5 20.5zM50 375q0 16 15 20q19 5 135 5q129 0 143 -9q7 -4 7 -16q0 -16 -15 -20q-19 -5 -135 -5q-129 0 -143 9q-7 4 -7 16zM0 475
q0 16 9.5 20.5t40.5 4.5t40.5 -4.5t9.5 -20.5t-9.5 -20.5t-40.5 -4.5t-40.5 4.5t-9.5 20.5zM300 575q0 16 9.5 20.5t40.5 4.5t40.5 -4.5t9.5 -20.5t-9.5 -20.5t-40.5 -4.5t-40.5 4.5t-9.5 20.5zM0 575q0 16 9.5 20.5t40.5 4.5t40.5 -4.5t9.5 -20.5t-9.5 -20.5t-40.5 -4.5
t-40.5 4.5t-9.5 20.5zM50 675q0 16 15 20q19 5 135 5q129 0 143 -9q7 -4 7 -16q0 -16 -15 -20q-19 -5 -135 -5q-129 0 -143 9q-7 4 -7 16z" />
    <glyph glyph-name="T" unicode="T" 
d="M150 75q0 16 9.5 20.5t40.5 4.5t40.5 -4.5t9.5 -20.5t-9.5 -20.5t-40.5 -4.5t-40.5 4.5t-9.5 20.5zM150 175q0 16 9.5 20.5t40.5 4.5t40.5 -4.5t9.5 -20.5t-9.5 -20.5t-40.5 -4.5t-40.5 4.5t-9.5 20.5zM150 275q0 16 9.5 20.5t40.5 4.5t40.5 -4.5t9.5 -20.5t-9.5 -20.5
t-40.5 -4.5t-40.5 4.5t-9.5 20.5zM150 375q0 16 9.5 20.5t40.5 4.5t40.5 -4.5t9.5 -20.5t-9.5 -20.5t-40.5 -4.5t-40.5 4.5t-9.5 20.5zM150 475q0 16 9.5 20.5t40.5 4.5t40.5 -4.5t9.5 -20.5t-9.5 -20.5t-40.5 -4.5t-40.5 4.5t-9.5 20.5zM150 575q0 16 9.5 20.5t40.5 4.5
t40.5 -4.5t9.5 -20.5t-9.5 -20.5t-40.5 -4.5t-40.5 4.5t-9.5 20.5zM0 675q0 15 15 19q24 6 185 6q173 0 191 -9q9 -4 9 -16q0 -15 -15 -19q-24 -6 -185 -6q-173 0 -191 9q-9 4 -9 16z" />
    <glyph glyph-name="U" unicode="U" 
d="M50 75q0 16 15 20q19 5 135 5q129 0 143 -9q7 -4 7 -16q0 -16 -15 -20q-19 -5 -135 -5q-129 0 -143 9q-7 4 -7 16zM300 175q0 16 9.5 20.5t40.5 4.5t40.5 -4.5t9.5 -20.5t-9.5 -20.5t-40.5 -4.5t-40.5 4.5t-9.5 20.5zM0 175q0 16 9.5 20.5t40.5 4.5t40.5 -4.5t9.5 -20.5
t-9.5 -20.5t-40.5 -4.5t-40.5 4.5t-9.5 20.5zM300 275q0 16 9.5 20.5t40.5 4.5t40.5 -4.5t9.5 -20.5t-9.5 -20.5t-40.5 -4.5t-40.5 4.5t-9.5 20.5zM0 275q0 16 9.5 20.5t40.5 4.5t40.5 -4.5t9.5 -20.5t-9.5 -20.5t-40.5 -4.5t-40.5 4.5t-9.5 20.5zM300 375q0 16 9.5 20.5
t40.5 4.5t40.5 -4.5t9.5 -20.5t-9.5 -20.5t-40.5 -4.5t-40.5 4.5t-9.5 20.5zM0 375q0 16 9.5 20.5t40.5 4.5t40.5 -4.5t9.5 -20.5t-9.5 -20.5t-40.5 -4.5t-40.5 4.5t-9.5 20.5zM300 475q0 16 9.5 20.5t40.5 4.5t40.5 -4.5t9.5 -20.5t-9.5 -20.5t-40.5 -4.5t-40.5 4.5
t-9.5 20.5zM0 475q0 16 9.5 20.5t40.5 4.5t40.5 -4.5t9.5 -20.5t-9.5 -20.5t-40.5 -4.5t-40.5 4.5t-9.5 20.5zM300 575q0 16 9.5 20.5t40.5 4.5t40.5 -4.5t9.5 -20.5t-9.5 -20.5t-40.5 -4.5t-40.5 4.5t-9.5 20.5zM0 575q0 16 9.5 20.5t40.5 4.5t40.5 -4.5t9.5 -20.5
t-9.5 -20.5t-40.5 -4.5t-40.5 4.5t-9.5 20.5zM300 675q0 16 9.5 20.5t40.5 4.5t40.5 -4.5t9.5 -20.5t-9.5 -20.5t-40.5 -4.5t-40.5 4.5t-9.5 20.5zM0 675q0 16 9.5 20.5t40.5 4.5t40.5 -4.5t9.5 -20.5t-9.5 -20.5t-40.5 -4.5t-40.5 4.5t-9.5 20.5z" />
    <glyph glyph-name="V" unicode="V" 
d="M150 75q0 16 9.5 20.5t40.5 4.5t40.5 -4.5t9.5 -20.5t-9.5 -20.5t-40.5 -4.5t-40.5 4.5t-9.5 20.5zM100 175q0 17 16 21t84 4t84 -4t16 -21t-16 -21t-84 -4t-84 4t-16 21zM100 275q0 17 16 21t84 4t84 -4t16 -21t-16 -21t-84 -4t-84 4t-16 21zM250 375q0 16 9.5 20.5
t40.5 4.5t40.5 -4.5t9.5 -20.5t-9.5 -20.5t-40.5 -4.5t-40.5 4.5t-9.5 20.5zM50 375q0 16 9.5 20.5t40.5 4.5t40.5 -4.5t9.5 -20.5t-9.5 -20.5t-40.5 -4.5t-40.5 4.5t-9.5 20.5zM250 475q0 16 9.5 20.5t40.5 4.5t40.5 -4.5t9.5 -20.5t-9.5 -20.5t-40.5 -4.5t-40.5 4.5
t-9.5 20.5zM50 475q0 16 9.5 20.5t40.5 4.5t40.5 -4.5t9.5 -20.5t-9.5 -20.5t-40.5 -4.5t-40.5 4.5t-9.5 20.5zM300 575q0 16 9.5 20.5t40.5 4.5t40.5 -4.5t9.5 -20.5t-9.5 -20.5t-40.5 -4.5t-40.5 4.5t-9.5 20.5zM0 575q0 16 9.5 20.5t40.5 4.5t40.5 -4.5t9.5 -20.5
t-9.5 -20.5t-40.5 -4.5t-40.5 4.5t-9.5 20.5zM300 675q0 16 9.5 20.5t40.5 4.5t40.5 -4.5t9.5 -20.5t-9.5 -20.5t-40.5 -4.5t-40.5 4.5t-9.5 20.5zM0 675q0 16 9.5 20.5t40.5 4.5t40.5 -4.5t9.5 -20.5t-9.5 -20.5t-40.5 -4.5t-40.5 4.5t-9.5 20.5z" />
    <glyph glyph-name="W" unicode="W" 
d="M250 75q0 16 9.5 20.5t40.5 4.5t40.5 -4.5t9.5 -20.5t-9.5 -20.5t-40.5 -4.5t-40.5 4.5t-9.5 20.5zM50 75q0 16 9.5 20.5t40.5 4.5t40.5 -4.5t9.5 -20.5t-9.5 -20.5t-40.5 -4.5t-40.5 4.5t-9.5 20.5zM0 175q0 15 15 19q24 6 185 6q173 0 191 -9q9 -4 9 -16q0 -15 -15 -19
q-24 -6 -185 -6q-173 0 -191 9q-9 4 -9 16zM300 275q0 16 9.5 20.5t40.5 4.5t40.5 -4.5t9.5 -20.5t-9.5 -20.5t-40.5 -4.5t-40.5 4.5t-9.5 20.5zM150 275q0 16 9.5 20.5t40.5 4.5t40.5 -4.5t9.5 -20.5t-9.5 -20.5t-40.5 -4.5t-40.5 4.5t-9.5 20.5zM0 275q0 16 9.5 20.5
t40.5 4.5t40.5 -4.5t9.5 -20.5t-9.5 -20.5t-40.5 -4.5t-40.5 4.5t-9.5 20.5zM300 375q0 16 9.5 20.5t40.5 4.5t40.5 -4.5t9.5 -20.5t-9.5 -20.5t-40.5 -4.5t-40.5 4.5t-9.5 20.5zM150 375q0 16 9.5 20.5t40.5 4.5t40.5 -4.5t9.5 -20.5t-9.5 -20.5t-40.5 -4.5t-40.5 4.5
t-9.5 20.5zM0 375q0 16 9.5 20.5t40.5 4.5t40.5 -4.5t9.5 -20.5t-9.5 -20.5t-40.5 -4.5t-40.5 4.5t-9.5 20.5zM300 475q0 16 9.5 20.5t40.5 4.5t40.5 -4.5t9.5 -20.5t-9.5 -20.5t-40.5 -4.5t-40.5 4.5t-9.5 20.5zM0 475q0 16 9.5 20.5t40.5 4.5t40.5 -4.5t9.5 -20.5
t-9.5 -20.5t-40.5 -4.5t-40.5 4.5t-9.5 20.5zM300 575q0 16 9.5 20.5t40.5 4.5t40.5 -4.5t9.5 -20.5t-9.5 -20.5t-40.5 -4.5t-40.5 4.5t-9.5 20.5zM0 575q0 16 9.5 20.5t40.5 4.5t40.5 -4.5t9.5 -20.5t-9.5 -20.5t-40.5 -4.5t-40.5 4.5t-9.5 20.5zM300 675q0 16 9.5 20.5
t40.5 4.5t40.5 -4.5t9.5 -20.5t-9.5 -20.5t-40.5 -4.5t-40.5 4.5t-9.5 20.5zM0 675q0 16 9.5 20.5t40.5 4.5t40.5 -4.5t9.5 -20.5t-9.5 -20.5t-40.5 -4.5t-40.5 4.5t-9.5 20.5z" />
    <glyph glyph-name="X" unicode="X" 
d="M300 75q0 16 9.5 20.5t40.5 4.5t40.5 -4.5t9.5 -20.5t-9.5 -20.5t-40.5 -4.5t-40.5 4.5t-9.5 20.5zM0 75q0 16 9.5 20.5t40.5 4.5t40.5 -4.5t9.5 -20.5t-9.5 -20.5t-40.5 -4.5t-40.5 4.5t-9.5 20.5zM250 175q0 16 9.5 20.5t40.5 4.5t40.5 -4.5t9.5 -20.5t-9.5 -20.5
t-40.5 -4.5t-40.5 4.5t-9.5 20.5zM50 175q0 16 9.5 20.5t40.5 4.5t40.5 -4.5t9.5 -20.5t-9.5 -20.5t-40.5 -4.5t-40.5 4.5t-9.5 20.5zM100 275q0 17 16 21t84 4t84 -4t16 -21t-16 -21t-84 -4t-84 4t-16 21zM150 375q0 16 9.5 20.5t40.5 4.5t40.5 -4.5t9.5 -20.5t-9.5 -20.5
t-40.5 -4.5t-40.5 4.5t-9.5 20.5zM100 475q0 17 16 21t84 4t84 -4t16 -21t-16 -21t-84 -4t-84 4t-16 21zM250 575q0 16 9.5 20.5t40.5 4.5t40.5 -4.5t9.5 -20.5t-9.5 -20.5t-40.5 -4.5t-40.5 4.5t-9.5 20.5zM50 575q0 16 9.5 20.5t40.5 4.5t40.5 -4.5t9.5 -20.5t-9.5 -20.5
t-40.5 -4.5t-40.5 4.5t-9.5 20.5zM300 675q0 16 9.5 20.5t40.5 4.5t40.5 -4.5t9.5 -20.5t-9.5 -20.5t-40.5 -4.5t-40.5 4.5t-9.5 20.5zM0 675q0 16 9.5 20.5t40.5 4.5t40.5 -4.5t9.5 -20.5t-9.5 -20.5t-40.5 -4.5t-40.5 4.5t-9.5 20.5z" />
    <glyph glyph-name="Y" unicode="Y" 
d="M150 75q0 16 9.5 20.5t40.5 4.5t40.5 -4.5t9.5 -20.5t-9.5 -20.5t-40.5 -4.5t-40.5 4.5t-9.5 20.5zM150 175q0 16 9.5 20.5t40.5 4.5t40.5 -4.5t9.5 -20.5t-9.5 -20.5t-40.5 -4.5t-40.5 4.5t-9.5 20.5zM150 275q0 16 9.5 20.5t40.5 4.5t40.5 -4.5t9.5 -20.5t-9.5 -20.5
t-40.5 -4.5t-40.5 4.5t-9.5 20.5zM150 375q0 16 9.5 20.5t40.5 4.5t40.5 -4.5t9.5 -20.5t-9.5 -20.5t-40.5 -4.5t-40.5 4.5t-9.5 20.5zM100 475q0 17 16 21t84 4t84 -4t16 -21t-16 -21t-84 -4t-84 4t-16 21zM250 575q0 16 9.5 20.5t40.5 4.5t40.5 -4.5t9.5 -20.5t-9.5 -20.5
t-40.5 -4.5t-40.5 4.5t-9.5 20.5zM50 575q0 16 9.5 20.5t40.5 4.5t40.5 -4.5t9.5 -20.5t-9.5 -20.5t-40.5 -4.5t-40.5 4.5t-9.5 20.5zM300 675q0 16 9.5 20.5t40.5 4.5t40.5 -4.5t9.5 -20.5t-9.5 -20.5t-40.5 -4.5t-40.5 4.5t-9.5 20.5zM0 675q0 16 9.5 20.5t40.5 4.5
t40.5 -4.5t9.5 -20.5t-9.5 -20.5t-40.5 -4.5t-40.5 4.5t-9.5 20.5z" />
    <glyph glyph-name="Z" unicode="Z" 
d="M0 75q0 15 15 19q24 6 185 6q173 0 191 -9q9 -4 9 -16q0 -15 -15 -19q-24 -6 -185 -6q-173 0 -191 9q-9 4 -9 16zM50 175q0 16 9.5 20.5t40.5 4.5t40.5 -4.5t9.5 -20.5t-9.5 -20.5t-40.5 -4.5t-40.5 4.5t-9.5 20.5zM100 275q0 16 9.5 20.5t40.5 4.5t40.5 -4.5t9.5 -20.5
t-9.5 -20.5t-40.5 -4.5t-40.5 4.5t-9.5 20.5zM150 375q0 16 9.5 20.5t40.5 4.5t40.5 -4.5t9.5 -20.5t-9.5 -20.5t-40.5 -4.5t-40.5 4.5t-9.5 20.5zM200 475q0 16 9.5 20.5t40.5 4.5t40.5 -4.5t9.5 -20.5t-9.5 -20.5t-40.5 -4.5t-40.5 4.5t-9.5 20.5zM250 575q0 16 9.5 20.5
t40.5 4.5t40.5 -4.5t9.5 -20.5t-9.5 -20.5t-40.5 -4.5t-40.5 4.5t-9.5 20.5zM0 675q0 15 15 19q24 6 185 6q173 0 191 -9q9 -4 9 -16q0 -15 -15 -19q-24 -6 -185 -6q-173 0 -191 9q-9 4 -9 16z" />
    <glyph glyph-name="bracketleft" unicode="[" 
d="M100 75q0 9 2.5 13.5t17 7.5t36.5 3.5t69 0.5t69 -0.5t36.5 -3.5t17 -7.5t2.5 -13.5t-2.5 -13.5t-17 -7.5t-36.5 -3.5t-69 -0.5t-69 0.5t-36.5 3.5t-17 7.5t-2.5 13.5zM100 175q0 16 9.5 20.5t40.5 4.5t40.5 -4.5t9.5 -20.5t-9.5 -20.5t-40.5 -4.5t-40.5 4.5t-9.5 20.5z
M100 275q0 16 9.5 20.5t40.5 4.5t40.5 -4.5t9.5 -20.5t-9.5 -20.5t-40.5 -4.5t-40.5 4.5t-9.5 20.5zM100 375q0 16 9.5 20.5t40.5 4.5t40.5 -4.5t9.5 -20.5t-9.5 -20.5t-40.5 -4.5t-40.5 4.5t-9.5 20.5zM100 475q0 16 9.5 20.5t40.5 4.5t40.5 -4.5t9.5 -20.5t-9.5 -20.5
t-40.5 -4.5t-40.5 4.5t-9.5 20.5zM100 575q0 16 9.5 20.5t40.5 4.5t40.5 -4.5t9.5 -20.5t-9.5 -20.5t-40.5 -4.5t-40.5 4.5t-9.5 20.5zM100 675q0 9 2.5 13.5t17 7.5t36.5 3.5t69 0.5t69 -0.5t36.5 -3.5t17 -7.5t2.5 -13.5t-2.5 -13.5t-17 -7.5t-36.5 -3.5t-69 -0.5t-69 0.5
t-36.5 3.5t-17 7.5t-2.5 13.5z" />
    <glyph glyph-name="backslash" unicode="\" 
d="M300 75q0 16 9.5 20.5t40.5 4.5t40.5 -4.5t9.5 -20.5t-9.5 -20.5t-40.5 -4.5t-40.5 4.5t-9.5 20.5zM250 175q0 16 9.5 20.5t40.5 4.5t40.5 -4.5t9.5 -20.5t-9.5 -20.5t-40.5 -4.5t-40.5 4.5t-9.5 20.5zM200 275q0 16 9.5 20.5t40.5 4.5t40.5 -4.5t9.5 -20.5t-9.5 -20.5
t-40.5 -4.5t-40.5 4.5t-9.5 20.5zM150 375q0 16 9.5 20.5t40.5 4.5t40.5 -4.5t9.5 -20.5t-9.5 -20.5t-40.5 -4.5t-40.5 4.5t-9.5 20.5zM100 475q0 16 9.5 20.5t40.5 4.5t40.5 -4.5t9.5 -20.5t-9.5 -20.5t-40.5 -4.5t-40.5 4.5t-9.5 20.5zM50 575q0 16 9.5 20.5t40.5 4.5
t40.5 -4.5t9.5 -20.5t-9.5 -20.5t-40.5 -4.5t-40.5 4.5t-9.5 20.5zM0 675q0 16 9.5 20.5t40.5 4.5t40.5 -4.5t9.5 -20.5t-9.5 -20.5t-40.5 -4.5t-40.5 4.5t-9.5 20.5z" />
    <glyph glyph-name="bracketright" unicode="]" 
d="M50 75q0 9 2.5 13.5t17 7.5t36.5 3.5t69 0.5t69 -0.5t36.5 -3.5t17 -7.5t2.5 -13.5t-2.5 -13.5t-17 -7.5t-36.5 -3.5t-69 -0.5t-69 0.5t-36.5 3.5t-17 7.5t-2.5 13.5zM200 175q0 16 9.5 20.5t40.5 4.5t40.5 -4.5t9.5 -20.5t-9.5 -20.5t-40.5 -4.5t-40.5 4.5t-9.5 20.5z
M200 275q0 16 9.5 20.5t40.5 4.5t40.5 -4.5t9.5 -20.5t-9.5 -20.5t-40.5 -4.5t-40.5 4.5t-9.5 20.5zM200 375q0 16 9.5 20.5t40.5 4.5t40.5 -4.5t9.5 -20.5t-9.5 -20.5t-40.5 -4.5t-40.5 4.5t-9.5 20.5zM200 475q0 16 9.5 20.5t40.5 4.5t40.5 -4.5t9.5 -20.5t-9.5 -20.5
t-40.5 -4.5t-40.5 4.5t-9.5 20.5zM200 575q0 16 9.5 20.5t40.5 4.5t40.5 -4.5t9.5 -20.5t-9.5 -20.5t-40.5 -4.5t-40.5 4.5t-9.5 20.5zM50 675q0 9 2.5 13.5t17 7.5t36.5 3.5t69 0.5t69 -0.5t36.5 -3.5t17 -7.5t2.5 -13.5t-2.5 -13.5t-17 -7.5t-36.5 -3.5t-69 -0.5t-69 0.5
t-36.5 3.5t-17 7.5t-2.5 13.5z" />
    <glyph glyph-name="asciicircum" unicode="^" 
d="M300 375q0 16 9.5 20.5t40.5 4.5t40.5 -4.5t9.5 -20.5t-9.5 -20.5t-40.5 -4.5t-40.5 4.5t-9.5 20.5zM0 375q0 16 9.5 20.5t40.5 4.5t40.5 -4.5t9.5 -20.5t-9.5 -20.5t-40.5 -4.5t-40.5 4.5t-9.5 20.5zM250 475q0 16 9.5 20.5t40.5 4.5t40.5 -4.5t9.5 -20.5t-9.5 -20.5
t-40.5 -4.5t-40.5 4.5t-9.5 20.5zM50 475q0 16 9.5 20.5t40.5 4.5t40.5 -4.5t9.5 -20.5t-9.5 -20.5t-40.5 -4.5t-40.5 4.5t-9.5 20.5zM100 575q0 17 16 21t84 4t84 -4t16 -21t-16 -21t-84 -4t-84 4t-16 21zM150 675q0 16 9.5 20.5t40.5 4.5t40.5 -4.5t9.5 -20.5t-9.5 -20.5
t-40.5 -4.5t-40.5 4.5t-9.5 20.5z" />
    <glyph glyph-name="underscore" unicode="_" 
d="M0 75q0 15 15 19q24 6 185 6q173 0 191 -9q9 -4 9 -16q0 -15 -15 -19q-24 -6 -185 -6q-173 0 -191 9q-9 4 -9 16z" />
    <glyph glyph-name="grave" unicode="`" 
d="M200 475q0 16 9.5 20.5t40.5 4.5t40.5 -4.5t9.5 -20.5t-9.5 -20.5t-40.5 -4.5t-40.5 4.5t-9.5 20.5zM150 575q0 16 9.5 20.5t40.5 4.5t40.5 -4.5t9.5 -20.5t-9.5 -20.5t-40.5 -4.5t-40.5 4.5t-9.5 20.5zM100 675q0 17 13 21t62 4t62 -4t13 -21t-13 -21t-62 -4t-62 4
t-13 21z" />
    <glyph glyph-name="a" unicode="a" 
d="M50 75q0 15 15 19q22 6 160 6q151 0 167 -9q8 -4 8 -16q0 -15 -15 -19q-22 -6 -160 -6q-151 0 -167 9q-8 4 -8 16zM250 175q0 17 13 21t62 4q50 0 62.5 -4t12.5 -21t-12.5 -21t-62.5 -4q-49 0 -62 4t-13 21zM0 175q0 16 9.5 20.5t40.5 4.5t40.5 -4.5t9.5 -20.5
t-9.5 -20.5t-40.5 -4.5t-40.5 4.5t-9.5 20.5zM50 275q0 15 15 19q22 6 160 6q151 0 167 -9q8 -4 8 -16q0 -15 -15 -19q-22 -6 -160 -6q-151 0 -167 9q-8 4 -8 16zM300 375q0 16 9.5 20.5t40.5 4.5t40.5 -4.5t9.5 -20.5t-9.5 -20.5t-40.5 -4.5t-40.5 4.5t-9.5 20.5zM50 475
q0 16 15 20q19 5 135 5q129 0 143 -9q7 -4 7 -16q0 -16 -15 -20q-19 -5 -135 -5q-129 0 -143 9q-7 4 -7 16z" />
    <glyph glyph-name="b" unicode="b" 
d="M0 75q0 15 15 19q22 6 160 6q151 0 167 -9q8 -4 8 -16q0 -15 -15 -19q-22 -6 -160 -6q-151 0 -167 9q-8 4 -8 16zM300 175q0 16 9.5 20.5t40.5 4.5t40.5 -4.5t9.5 -20.5t-9.5 -20.5t-40.5 -4.5t-40.5 4.5t-9.5 20.5zM0 175q0 17 13 21t62 4t62 -4t13 -21t-13 -21t-62 -4
t-62 4t-13 21zM300 275q0 16 9.5 20.5t40.5 4.5t40.5 -4.5t9.5 -20.5t-9.5 -20.5t-40.5 -4.5t-40.5 4.5t-9.5 20.5zM0 275q0 16 9.5 20.5t40.5 4.5t40.5 -4.5t9.5 -20.5t-9.5 -20.5t-40.5 -4.5t-40.5 4.5t-9.5 20.5zM300 375q0 16 9.5 20.5t40.5 4.5t40.5 -4.5t9.5 -20.5
t-9.5 -20.5t-40.5 -4.5t-40.5 4.5t-9.5 20.5zM0 375q0 17 13 21t62 4t62 -4t13 -21t-13 -21t-62 -4t-62 4t-13 21zM0 475q0 15 15 19q22 6 160 6q151 0 167 -9q8 -4 8 -16q0 -15 -15 -19q-22 -6 -160 -6q-151 0 -167 9q-8 4 -8 16zM0 575q0 16 9.5 20.5t40.5 4.5t40.5 -4.5
t9.5 -20.5t-9.5 -20.5t-40.5 -4.5t-40.5 4.5t-9.5 20.5zM0 675q0 16 9.5 20.5t40.5 4.5t40.5 -4.5t9.5 -20.5t-9.5 -20.5t-40.5 -4.5t-40.5 4.5t-9.5 20.5z" />
    <glyph glyph-name="c" unicode="c" 
d="M50 75q0 15 15 19q22 6 160 6q151 0 167 -9q8 -4 8 -16q0 -15 -15 -19q-22 -6 -160 -6q-151 0 -167 9q-8 4 -8 16zM0 175q0 16 9.5 20.5t40.5 4.5t40.5 -4.5t9.5 -20.5t-9.5 -20.5t-40.5 -4.5t-40.5 4.5t-9.5 20.5zM0 275q0 16 9.5 20.5t40.5 4.5t40.5 -4.5t9.5 -20.5
t-9.5 -20.5t-40.5 -4.5t-40.5 4.5t-9.5 20.5zM300 375q0 16 9.5 20.5t40.5 4.5t40.5 -4.5t9.5 -20.5t-9.5 -20.5t-40.5 -4.5t-40.5 4.5t-9.5 20.5zM0 375q0 16 9.5 20.5t40.5 4.5t40.5 -4.5t9.5 -20.5t-9.5 -20.5t-40.5 -4.5t-40.5 4.5t-9.5 20.5zM50 475q0 16 15 20
q19 5 135 5q129 0 143 -9q7 -4 7 -16q0 -16 -15 -20q-19 -5 -135 -5q-129 0 -143 9q-7 4 -7 16z" />
    <glyph glyph-name="d" unicode="d" 
d="M50 75q0 15 15 19q22 6 160 6q151 0 167 -9q8 -4 8 -16q0 -15 -15 -19q-22 -6 -160 -6q-151 0 -167 9q-8 4 -8 16zM250 175q0 17 13 21t62 4q50 0 62.5 -4t12.5 -21t-12.5 -21t-62.5 -4q-49 0 -62 4t-13 21zM0 175q0 16 9.5 20.5t40.5 4.5t40.5 -4.5t9.5 -20.5
t-9.5 -20.5t-40.5 -4.5t-40.5 4.5t-9.5 20.5zM300 275q0 16 9.5 20.5t40.5 4.5t40.5 -4.5t9.5 -20.5t-9.5 -20.5t-40.5 -4.5t-40.5 4.5t-9.5 20.5zM0 275q0 16 9.5 20.5t40.5 4.5t40.5 -4.5t9.5 -20.5t-9.5 -20.5t-40.5 -4.5t-40.5 4.5t-9.5 20.5zM250 375q0 17 13 21t62 4
q50 0 62.5 -4t12.5 -21t-12.5 -21t-62.5 -4q-49 0 -62 4t-13 21zM0 375q0 16 9.5 20.5t40.5 4.5t40.5 -4.5t9.5 -20.5t-9.5 -20.5t-40.5 -4.5t-40.5 4.5t-9.5 20.5zM50 475q0 15 15 19q22 6 160 6q151 0 167 -9q8 -4 8 -16q0 -15 -15 -19q-22 -6 -160 -6q-151 0 -167 9
q-8 4 -8 16zM300 575q0 16 9.5 20.5t40.5 4.5t40.5 -4.5t9.5 -20.5t-9.5 -20.5t-40.5 -4.5t-40.5 4.5t-9.5 20.5zM300 675q0 16 9.5 20.5t40.5 4.5t40.5 -4.5t9.5 -20.5t-9.5 -20.5t-40.5 -4.5t-40.5 4.5t-9.5 20.5z" />
    <glyph glyph-name="e" unicode="e" 
d="M50 75q0 16 15 20q19 5 135 5q129 0 143 -9q7 -4 7 -16q0 -16 -15 -20q-19 -5 -135 -5q-129 0 -143 9q-7 4 -7 16zM0 175q0 16 9.5 20.5t40.5 4.5t40.5 -4.5t9.5 -20.5t-9.5 -20.5t-40.5 -4.5t-40.5 4.5t-9.5 20.5zM0 275q0 15 15 19q24 6 185 6q173 0 191 -9q9 -4 9 -16
q0 -15 -15 -19q-24 -6 -185 -6q-173 0 -191 9q-9 4 -9 16zM300 375q0 16 9.5 20.5t40.5 4.5t40.5 -4.5t9.5 -20.5t-9.5 -20.5t-40.5 -4.5t-40.5 4.5t-9.5 20.5zM0 375q0 16 9.5 20.5t40.5 4.5t40.5 -4.5t9.5 -20.5t-9.5 -20.5t-40.5 -4.5t-40.5 4.5t-9.5 20.5zM50 475
q0 16 15 20q19 5 135 5q129 0 143 -9q7 -4 7 -16q0 -16 -15 -20q-19 -5 -135 -5q-129 0 -143 9q-7 4 -7 16z" />
    <glyph glyph-name="f" unicode="f" 
d="M100 75q0 16 9.5 20.5t40.5 4.5t40.5 -4.5t9.5 -20.5t-9.5 -20.5t-40.5 -4.5t-40.5 4.5t-9.5 20.5zM100 175q0 16 9.5 20.5t40.5 4.5t40.5 -4.5t9.5 -20.5t-9.5 -20.5t-40.5 -4.5t-40.5 4.5t-9.5 20.5zM100 275q0 16 9.5 20.5t40.5 4.5t40.5 -4.5t9.5 -20.5t-9.5 -20.5
t-40.5 -4.5t-40.5 4.5t-9.5 20.5zM0 375q0 16 15 20q19 5 135 5q129 0 143 -9q7 -4 7 -16q0 -16 -15 -20q-19 -5 -135 -5q-129 0 -143 9q-7 4 -7 16zM100 475q0 16 9.5 20.5t40.5 4.5t40.5 -4.5t9.5 -20.5t-9.5 -20.5t-40.5 -4.5t-40.5 4.5t-9.5 20.5zM300 575
q0 16 9.5 20.5t40.5 4.5t40.5 -4.5t9.5 -20.5t-9.5 -20.5t-40.5 -4.5t-40.5 4.5t-9.5 20.5zM100 575q0 16 9.5 20.5t40.5 4.5t40.5 -4.5t9.5 -20.5t-9.5 -20.5t-40.5 -4.5t-40.5 4.5t-9.5 20.5zM150 675q0 17 16 21t84 4t84 -4t16 -21t-16 -21t-84 -4t-84 4t-16 21z" />
    <glyph glyph-name="g" unicode="g" 
d="M50 -125q0 16 15 20q19 5 135 5q129 0 143 -9q7 -4 7 -16q0 -16 -15 -20q-19 -5 -135 -5q-129 0 -143 9q-7 4 -7 16zM300 -25q0 16 9.5 20.5t40.5 4.5t40.5 -4.5t9.5 -20.5t-9.5 -20.5t-40.5 -4.5t-40.5 4.5t-9.5 20.5zM0 -25q0 16 9.5 20.5t40.5 4.5t40.5 -4.5
t9.5 -20.5t-9.5 -20.5t-40.5 -4.5t-40.5 4.5t-9.5 20.5zM50 75q0 16 15 20q19 5 135 5q129 0 143 -9q7 -4 7 -16q0 -16 -15 -20q-19 -5 -135 -5q-129 0 -143 9q-7 4 -7 16zM0 175q0 16 9.5 20.5t40.5 4.5t40.5 -4.5t9.5 -20.5t-9.5 -20.5t-40.5 -4.5t-40.5 4.5t-9.5 20.5z
M50 275q0 9 2.5 13.5t17 7.5t36.5 3.5t69 0.5t69 -0.5t36.5 -3.5t17 -7.5t2.5 -13.5t-2.5 -13.5t-17 -7.5t-36.5 -3.5t-69 -0.5t-69 0.5t-36.5 3.5t-17 7.5t-2.5 13.5zM250 375q0 16 9.5 20.5t40.5 4.5t40.5 -4.5t9.5 -20.5t-9.5 -20.5t-40.5 -4.5t-40.5 4.5t-9.5 20.5z
M0 375q0 16 9.5 20.5t40.5 4.5t40.5 -4.5t9.5 -20.5t-9.5 -20.5t-40.5 -4.5t-40.5 4.5t-9.5 20.5zM50 475q0 15 15 19q22 6 160 6q151 0 167 -9q8 -4 8 -16q0 -15 -15 -19q-22 -6 -160 -6q-151 0 -167 9q-8 4 -8 16z" />
    <glyph glyph-name="h" unicode="h" 
d="M300 75q0 16 9.5 20.5t40.5 4.5t40.5 -4.5t9.5 -20.5t-9.5 -20.5t-40.5 -4.5t-40.5 4.5t-9.5 20.5zM0 75q0 16 9.5 20.5t40.5 4.5t40.5 -4.5t9.5 -20.5t-9.5 -20.5t-40.5 -4.5t-40.5 4.5t-9.5 20.5zM300 175q0 16 9.5 20.5t40.5 4.5t40.5 -4.5t9.5 -20.5t-9.5 -20.5
t-40.5 -4.5t-40.5 4.5t-9.5 20.5zM0 175q0 16 9.5 20.5t40.5 4.5t40.5 -4.5t9.5 -20.5t-9.5 -20.5t-40.5 -4.5t-40.5 4.5t-9.5 20.5zM300 275q0 16 9.5 20.5t40.5 4.5t40.5 -4.5t9.5 -20.5t-9.5 -20.5t-40.5 -4.5t-40.5 4.5t-9.5 20.5zM0 275q0 16 9.5 20.5t40.5 4.5
t40.5 -4.5t9.5 -20.5t-9.5 -20.5t-40.5 -4.5t-40.5 4.5t-9.5 20.5zM300 375q0 16 9.5 20.5t40.5 4.5t40.5 -4.5t9.5 -20.5t-9.5 -20.5t-40.5 -4.5t-40.5 4.5t-9.5 20.5zM0 375q0 17 13 21t62 4t62 -4t13 -21t-13 -21t-62 -4t-62 4t-13 21zM0 475q0 15 15 19q22 6 160 6
q151 0 167 -9q8 -4 8 -16q0 -15 -15 -19q-22 -6 -160 -6q-151 0 -167 9q-8 4 -8 16zM0 575q0 16 9.5 20.5t40.5 4.5t40.5 -4.5t9.5 -20.5t-9.5 -20.5t-40.5 -4.5t-40.5 4.5t-9.5 20.5zM0 675q0 16 9.5 20.5t40.5 4.5t40.5 -4.5t9.5 -20.5t-9.5 -20.5t-40.5 -4.5t-40.5 4.5
t-9.5 20.5z" />
    <glyph glyph-name="i" unicode="i" 
d="M50 75q0 16 15 20q19 5 135 5q129 0 143 -9q7 -4 7 -16q0 -16 -15 -20q-19 -5 -135 -5q-129 0 -143 9q-7 4 -7 16zM150 175q0 16 9.5 20.5t40.5 4.5t40.5 -4.5t9.5 -20.5t-9.5 -20.5t-40.5 -4.5t-40.5 4.5t-9.5 20.5zM150 275q0 16 9.5 20.5t40.5 4.5t40.5 -4.5
t9.5 -20.5t-9.5 -20.5t-40.5 -4.5t-40.5 4.5t-9.5 20.5zM150 375q0 16 9.5 20.5t40.5 4.5t40.5 -4.5t9.5 -20.5t-9.5 -20.5t-40.5 -4.5t-40.5 4.5t-9.5 20.5zM100 475q0 17 13 21t62 4t62 -4t13 -21t-13 -21t-62 -4t-62 4t-13 21zM150 675q0 16 9.5 20.5t40.5 4.5t40.5 -4.5
t9.5 -20.5t-9.5 -20.5t-40.5 -4.5t-40.5 4.5t-9.5 20.5z" />
    <glyph glyph-name="j" unicode="j" 
d="M50 -125q0 9 2.5 13.5t17 7.5t36.5 3.5t69 0.5t69 -0.5t36.5 -3.5t17 -7.5t2.5 -13.5t-2.5 -13.5t-17 -7.5t-36.5 -3.5t-69 -0.5t-69 0.5t-36.5 3.5t-17 7.5t-2.5 13.5zM250 -25q0 16 9.5 20.5t40.5 4.5t40.5 -4.5t9.5 -20.5t-9.5 -20.5t-40.5 -4.5t-40.5 4.5t-9.5 20.5z
M0 -25q0 16 9.5 20.5t40.5 4.5t40.5 -4.5t9.5 -20.5t-9.5 -20.5t-40.5 -4.5t-40.5 4.5t-9.5 20.5zM250 75q0 16 9.5 20.5t40.5 4.5t40.5 -4.5t9.5 -20.5t-9.5 -20.5t-40.5 -4.5t-40.5 4.5t-9.5 20.5zM0 75q0 16 9.5 20.5t40.5 4.5t40.5 -4.5t9.5 -20.5t-9.5 -20.5
t-40.5 -4.5t-40.5 4.5t-9.5 20.5zM250 175q0 16 9.5 20.5t40.5 4.5t40.5 -4.5t9.5 -20.5t-9.5 -20.5t-40.5 -4.5t-40.5 4.5t-9.5 20.5zM250 275q0 16 9.5 20.5t40.5 4.5t40.5 -4.5t9.5 -20.5t-9.5 -20.5t-40.5 -4.5t-40.5 4.5t-9.5 20.5zM250 375q0 16 9.5 20.5t40.5 4.5
t40.5 -4.5t9.5 -20.5t-9.5 -20.5t-40.5 -4.5t-40.5 4.5t-9.5 20.5zM250 475q0 16 9.5 20.5t40.5 4.5t40.5 -4.5t9.5 -20.5t-9.5 -20.5t-40.5 -4.5t-40.5 4.5t-9.5 20.5zM250 675q0 16 9.5 20.5t40.5 4.5t40.5 -4.5t9.5 -20.5t-9.5 -20.5t-40.5 -4.5t-40.5 4.5t-9.5 20.5z
" />
    <glyph glyph-name="k" unicode="k" 
d="M300 75q0 16 9.5 20.5t40.5 4.5t40.5 -4.5t9.5 -20.5t-9.5 -20.5t-40.5 -4.5t-40.5 4.5t-9.5 20.5zM0 75q0 16 9.5 20.5t40.5 4.5t40.5 -4.5t9.5 -20.5t-9.5 -20.5t-40.5 -4.5t-40.5 4.5t-9.5 20.5zM200 175q0 16 9.5 20.5t40.5 4.5t40.5 -4.5t9.5 -20.5t-9.5 -20.5
t-40.5 -4.5t-40.5 4.5t-9.5 20.5zM0 175q0 16 9.5 20.5t40.5 4.5t40.5 -4.5t9.5 -20.5t-9.5 -20.5t-40.5 -4.5t-40.5 4.5t-9.5 20.5zM0 275q0 17 16 21t84 4t84 -4t16 -21t-16 -21t-84 -4t-84 4t-16 21zM150 375q0 16 9.5 20.5t40.5 4.5t40.5 -4.5t9.5 -20.5t-9.5 -20.5
t-40.5 -4.5t-40.5 4.5t-9.5 20.5zM0 375q0 16 9.5 20.5t40.5 4.5t40.5 -4.5t9.5 -20.5t-9.5 -20.5t-40.5 -4.5t-40.5 4.5t-9.5 20.5zM200 475q0 16 9.5 20.5t40.5 4.5t40.5 -4.5t9.5 -20.5t-9.5 -20.5t-40.5 -4.5t-40.5 4.5t-9.5 20.5zM0 475q0 16 9.5 20.5t40.5 4.5
t40.5 -4.5t9.5 -20.5t-9.5 -20.5t-40.5 -4.5t-40.5 4.5t-9.5 20.5zM0 575q0 16 9.5 20.5t40.5 4.5t40.5 -4.5t9.5 -20.5t-9.5 -20.5t-40.5 -4.5t-40.5 4.5t-9.5 20.5zM0 675q0 16 9.5 20.5t40.5 4.5t40.5 -4.5t9.5 -20.5t-9.5 -20.5t-40.5 -4.5t-40.5 4.5t-9.5 20.5z" />
    <glyph glyph-name="l" unicode="l" 
d="M100 75q0 17 16 21t84 4t84 -4t16 -21t-16 -21t-84 -4t-84 4t-16 21zM150 175q0 16 9.5 20.5t40.5 4.5t40.5 -4.5t9.5 -20.5t-9.5 -20.5t-40.5 -4.5t-40.5 4.5t-9.5 20.5zM150 275q0 16 9.5 20.5t40.5 4.5t40.5 -4.5t9.5 -20.5t-9.5 -20.5t-40.5 -4.5t-40.5 4.5
t-9.5 20.5zM150 375q0 16 9.5 20.5t40.5 4.5t40.5 -4.5t9.5 -20.5t-9.5 -20.5t-40.5 -4.5t-40.5 4.5t-9.5 20.5zM150 475q0 16 9.5 20.5t40.5 4.5t40.5 -4.5t9.5 -20.5t-9.5 -20.5t-40.5 -4.5t-40.5 4.5t-9.5 20.5zM150 575q0 16 9.5 20.5t40.5 4.5t40.5 -4.5t9.5 -20.5
t-9.5 -20.5t-40.5 -4.5t-40.5 4.5t-9.5 20.5zM100 675q0 17 13 21t62 4t62 -4t13 -21t-13 -21t-62 -4t-62 4t-13 21z" />
    <glyph glyph-name="m" unicode="m" 
d="M300 75q0 16 9.5 20.5t40.5 4.5t40.5 -4.5t9.5 -20.5t-9.5 -20.5t-40.5 -4.5t-40.5 4.5t-9.5 20.5zM0 75q0 16 9.5 20.5t40.5 4.5t40.5 -4.5t9.5 -20.5t-9.5 -20.5t-40.5 -4.5t-40.5 4.5t-9.5 20.5zM300 175q0 16 9.5 20.5t40.5 4.5t40.5 -4.5t9.5 -20.5t-9.5 -20.5
t-40.5 -4.5t-40.5 4.5t-9.5 20.5zM150 175q0 16 9.5 20.5t40.5 4.5t40.5 -4.5t9.5 -20.5t-9.5 -20.5t-40.5 -4.5t-40.5 4.5t-9.5 20.5zM0 175q0 16 9.5 20.5t40.5 4.5t40.5 -4.5t9.5 -20.5t-9.5 -20.5t-40.5 -4.5t-40.5 4.5t-9.5 20.5zM300 275q0 16 9.5 20.5t40.5 4.5
t40.5 -4.5t9.5 -20.5t-9.5 -20.5t-40.5 -4.5t-40.5 4.5t-9.5 20.5zM150 275q0 16 9.5 20.5t40.5 4.5t40.5 -4.5t9.5 -20.5t-9.5 -20.5t-40.5 -4.5t-40.5 4.5t-9.5 20.5zM0 275q0 16 9.5 20.5t40.5 4.5t40.5 -4.5t9.5 -20.5t-9.5 -20.5t-40.5 -4.5t-40.5 4.5t-9.5 20.5z
M0 375q0 15 15 19q24 6 185 6q173 0 191 -9q9 -4 9 -16q0 -15 -15 -19q-24 -6 -185 -6q-173 0 -191 9q-9 4 -9 16zM250 475q0 16 9.5 20.5t40.5 4.5t40.5 -4.5t9.5 -20.5t-9.5 -20.5t-40.5 -4.5t-40.5 4.5t-9.5 20.5zM0 475q0 17 13 21t62 4t62 -4t13 -21t-13 -21t-62 -4
t-62 4t-13 21z" />
    <glyph glyph-name="n" unicode="n" 
d="M300 75q0 16 9.5 20.5t40.5 4.5t40.5 -4.5t9.5 -20.5t-9.5 -20.5t-40.5 -4.5t-40.5 4.5t-9.5 20.5zM0 75q0 16 9.5 20.5t40.5 4.5t40.5 -4.5t9.5 -20.5t-9.5 -20.5t-40.5 -4.5t-40.5 4.5t-9.5 20.5zM300 175q0 16 9.5 20.5t40.5 4.5t40.5 -4.5t9.5 -20.5t-9.5 -20.5
t-40.5 -4.5t-40.5 4.5t-9.5 20.5zM0 175q0 16 9.5 20.5t40.5 4.5t40.5 -4.5t9.5 -20.5t-9.5 -20.5t-40.5 -4.5t-40.5 4.5t-9.5 20.5zM300 275q0 16 9.5 20.5t40.5 4.5t40.5 -4.5t9.5 -20.5t-9.5 -20.5t-40.5 -4.5t-40.5 4.5t-9.5 20.5zM0 275q0 16 9.5 20.5t40.5 4.5
t40.5 -4.5t9.5 -20.5t-9.5 -20.5t-40.5 -4.5t-40.5 4.5t-9.5 20.5zM300 375q0 16 9.5 20.5t40.5 4.5t40.5 -4.5t9.5 -20.5t-9.5 -20.5t-40.5 -4.5t-40.5 4.5t-9.5 20.5zM0 375q0 17 13 21t62 4t62 -4t13 -21t-13 -21t-62 -4t-62 4t-13 21zM0 475q0 15 15 19q22 6 160 6
q151 0 167 -9q8 -4 8 -16q0 -15 -15 -19q-22 -6 -160 -6q-151 0 -167 9q-8 4 -8 16z" />
    <glyph glyph-name="o" unicode="o" 
d="M50 75q0 16 15 20q19 5 135 5q129 0 143 -9q7 -4 7 -16q0 -16 -15 -20q-19 -5 -135 -5q-129 0 -143 9q-7 4 -7 16zM300 175q0 16 9.5 20.5t40.5 4.5t40.5 -4.5t9.5 -20.5t-9.5 -20.5t-40.5 -4.5t-40.5 4.5t-9.5 20.5zM0 175q0 16 9.5 20.5t40.5 4.5t40.5 -4.5t9.5 -20.5
t-9.5 -20.5t-40.5 -4.5t-40.5 4.5t-9.5 20.5zM300 275q0 16 9.5 20.5t40.5 4.5t40.5 -4.5t9.5 -20.5t-9.5 -20.5t-40.5 -4.5t-40.5 4.5t-9.5 20.5zM0 275q0 16 9.5 20.5t40.5 4.5t40.5 -4.5t9.5 -20.5t-9.5 -20.5t-40.5 -4.5t-40.5 4.5t-9.5 20.5zM300 375q0 16 9.5 20.5
t40.5 4.5t40.5 -4.5t9.5 -20.5t-9.5 -20.5t-40.5 -4.5t-40.5 4.5t-9.5 20.5zM0 375q0 16 9.5 20.5t40.5 4.5t40.5 -4.5t9.5 -20.5t-9.5 -20.5t-40.5 -4.5t-40.5 4.5t-9.5 20.5zM50 475q0 16 15 20q19 5 135 5q129 0 143 -9q7 -4 7 -16q0 -16 -15 -20q-19 -5 -135 -5
q-129 0 -143 9q-7 4 -7 16z" />
    <glyph glyph-name="p" unicode="p" 
d="M0 -125q0 16 9.5 20.5t40.5 4.5t40.5 -4.5t9.5 -20.5t-9.5 -20.5t-40.5 -4.5t-40.5 4.5t-9.5 20.5zM0 -25q0 16 9.5 20.5t40.5 4.5t40.5 -4.5t9.5 -20.5t-9.5 -20.5t-40.5 -4.5t-40.5 4.5t-9.5 20.5zM0 75q0 16 9.5 20.5t40.5 4.5t40.5 -4.5t9.5 -20.5t-9.5 -20.5
t-40.5 -4.5t-40.5 4.5t-9.5 20.5zM0 175q0 15 15 19q22 6 160 6q151 0 167 -9q8 -4 8 -16q0 -15 -15 -19q-22 -6 -160 -6q-151 0 -167 9q-8 4 -8 16zM300 275q0 16 9.5 20.5t40.5 4.5t40.5 -4.5t9.5 -20.5t-9.5 -20.5t-40.5 -4.5t-40.5 4.5t-9.5 20.5zM0 275q0 17 13 21
t62 4t62 -4t13 -21t-13 -21t-62 -4t-62 4t-13 21zM300 375q0 16 9.5 20.5t40.5 4.5t40.5 -4.5t9.5 -20.5t-9.5 -20.5t-40.5 -4.5t-40.5 4.5t-9.5 20.5zM0 375q0 17 13 21t62 4t62 -4t13 -21t-13 -21t-62 -4t-62 4t-13 21zM0 475q0 15 15 19q22 6 160 6q151 0 167 -9
q8 -4 8 -16q0 -15 -15 -19q-22 -6 -160 -6q-151 0 -167 9q-8 4 -8 16z" />
    <glyph glyph-name="q" unicode="q" 
d="M300 -125q0 16 9.5 20.5t40.5 4.5t40.5 -4.5t9.5 -20.5t-9.5 -20.5t-40.5 -4.5t-40.5 4.5t-9.5 20.5zM300 -25q0 16 9.5 20.5t40.5 4.5t40.5 -4.5t9.5 -20.5t-9.5 -20.5t-40.5 -4.5t-40.5 4.5t-9.5 20.5zM300 75q0 16 9.5 20.5t40.5 4.5t40.5 -4.5t9.5 -20.5t-9.5 -20.5
t-40.5 -4.5t-40.5 4.5t-9.5 20.5zM50 175q0 15 15 19q22 6 160 6q151 0 167 -9q8 -4 8 -16q0 -15 -15 -19q-22 -6 -160 -6q-151 0 -167 9q-8 4 -8 16zM250 275q0 17 13 21t62 4q50 0 62.5 -4t12.5 -21t-12.5 -21t-62.5 -4q-49 0 -62 4t-13 21zM0 275q0 16 9.5 20.5t40.5 4.5
t40.5 -4.5t9.5 -20.5t-9.5 -20.5t-40.5 -4.5t-40.5 4.5t-9.5 20.5zM250 375q0 17 13 21t62 4q50 0 62.5 -4t12.5 -21t-12.5 -21t-62.5 -4q-49 0 -62 4t-13 21zM0 375q0 16 9.5 20.5t40.5 4.5t40.5 -4.5t9.5 -20.5t-9.5 -20.5t-40.5 -4.5t-40.5 4.5t-9.5 20.5zM50 475
q0 15 15 19q22 6 160 6q151 0 167 -9q8 -4 8 -16q0 -15 -15 -19q-22 -6 -160 -6q-151 0 -167 9q-8 4 -8 16z" />
    <glyph glyph-name="r" unicode="r" 
d="M50 75q0 16 9.5 20.5t40.5 4.5t40.5 -4.5t9.5 -20.5t-9.5 -20.5t-40.5 -4.5t-40.5 4.5t-9.5 20.5zM50 175q0 16 9.5 20.5t40.5 4.5t40.5 -4.5t9.5 -20.5t-9.5 -20.5t-40.5 -4.5t-40.5 4.5t-9.5 20.5zM50 275q0 16 9.5 20.5t40.5 4.5t40.5 -4.5t9.5 -20.5t-9.5 -20.5
t-40.5 -4.5t-40.5 4.5t-9.5 20.5zM300 375q0 16 9.5 20.5t40.5 4.5t40.5 -4.5t9.5 -20.5t-9.5 -20.5t-40.5 -4.5t-40.5 4.5t-9.5 20.5zM50 375q0 17 13 21t62 4t62 -4t13 -21t-13 -21t-62 -4t-62 4t-13 21zM150 475q0 17 16 21t84 4t84 -4t16 -21t-16 -21t-84 -4t-84 4
t-16 21zM0 475q0 16 9.5 20.5t40.5 4.5t40.5 -4.5t9.5 -20.5t-9.5 -20.5t-40.5 -4.5t-40.5 4.5t-9.5 20.5z" />
    <glyph glyph-name="s" unicode="s" 
d="M0 75q0 15 15 19q22 6 160 6q151 0 167 -9q8 -4 8 -16q0 -15 -15 -19q-22 -6 -160 -6q-151 0 -167 9q-8 4 -8 16zM300 175q0 16 9.5 20.5t40.5 4.5t40.5 -4.5t9.5 -20.5t-9.5 -20.5t-40.5 -4.5t-40.5 4.5t-9.5 20.5zM50 275q0 16 15 20q19 5 135 5q129 0 143 -9
q7 -4 7 -16q0 -16 -15 -20q-19 -5 -135 -5q-129 0 -143 9q-7 4 -7 16zM0 375q0 16 9.5 20.5t40.5 4.5t40.5 -4.5t9.5 -20.5t-9.5 -20.5t-40.5 -4.5t-40.5 4.5t-9.5 20.5zM50 475q0 16 15 20q19 5 135 5q129 0 143 -9q7 -4 7 -16q0 -16 -15 -20q-19 -5 -135 -5q-129 0 -143 9
q-7 4 -7 16z" />
    <glyph glyph-name="t" unicode="t" 
d="M150 75q0 17 13 21t62 4t62 -4t13 -21t-13 -21t-62 -4t-62 4t-13 21zM250 175q0 16 9.5 20.5t40.5 4.5t40.5 -4.5t9.5 -20.5t-9.5 -20.5t-40.5 -4.5t-40.5 4.5t-9.5 20.5zM100 175q0 16 9.5 20.5t40.5 4.5t40.5 -4.5t9.5 -20.5t-9.5 -20.5t-40.5 -4.5t-40.5 4.5
t-9.5 20.5zM100 275q0 16 9.5 20.5t40.5 4.5t40.5 -4.5t9.5 -20.5t-9.5 -20.5t-40.5 -4.5t-40.5 4.5t-9.5 20.5zM100 375q0 16 9.5 20.5t40.5 4.5t40.5 -4.5t9.5 -20.5t-9.5 -20.5t-40.5 -4.5t-40.5 4.5t-9.5 20.5zM0 475q0 16 15 20q19 5 135 5q129 0 143 -9q7 -4 7 -16
q0 -16 -15 -20q-19 -5 -135 -5q-129 0 -143 9q-7 4 -7 16zM100 575q0 16 9.5 20.5t40.5 4.5t40.5 -4.5t9.5 -20.5t-9.5 -20.5t-40.5 -4.5t-40.5 4.5t-9.5 20.5zM100 675q0 16 9.5 20.5t40.5 4.5t40.5 -4.5t9.5 -20.5t-9.5 -20.5t-40.5 -4.5t-40.5 4.5t-9.5 20.5z" />
    <glyph glyph-name="u" unicode="u" 
d="M50 75q0 15 15 19q22 6 160 6q151 0 167 -9q8 -4 8 -16q0 -15 -15 -19q-22 -6 -160 -6q-151 0 -167 9q-8 4 -8 16zM250 175q0 16 9.5 20.5t40.5 4.5t40.5 -4.5t9.5 -20.5t-9.5 -20.5t-40.5 -4.5t-40.5 4.5t-9.5 20.5zM0 175q0 16 9.5 20.5t40.5 4.5t40.5 -4.5t9.5 -20.5
t-9.5 -20.5t-40.5 -4.5t-40.5 4.5t-9.5 20.5zM250 275q0 16 9.5 20.5t40.5 4.5t40.5 -4.5t9.5 -20.5t-9.5 -20.5t-40.5 -4.5t-40.5 4.5t-9.5 20.5zM0 275q0 16 9.5 20.5t40.5 4.5t40.5 -4.5t9.5 -20.5t-9.5 -20.5t-40.5 -4.5t-40.5 4.5t-9.5 20.5zM250 375q0 16 9.5 20.5
t40.5 4.5t40.5 -4.5t9.5 -20.5t-9.5 -20.5t-40.5 -4.5t-40.5 4.5t-9.5 20.5zM0 375q0 16 9.5 20.5t40.5 4.5t40.5 -4.5t9.5 -20.5t-9.5 -20.5t-40.5 -4.5t-40.5 4.5t-9.5 20.5zM250 475q0 16 9.5 20.5t40.5 4.5t40.5 -4.5t9.5 -20.5t-9.5 -20.5t-40.5 -4.5t-40.5 4.5
t-9.5 20.5zM0 475q0 16 9.5 20.5t40.5 4.5t40.5 -4.5t9.5 -20.5t-9.5 -20.5t-40.5 -4.5t-40.5 4.5t-9.5 20.5z" />
    <glyph glyph-name="v" unicode="v" 
d="M150 75q0 16 9.5 20.5t40.5 4.5t40.5 -4.5t9.5 -20.5t-9.5 -20.5t-40.5 -4.5t-40.5 4.5t-9.5 20.5zM100 175q0 17 16 21t84 4t84 -4t16 -21t-16 -21t-84 -4t-84 4t-16 21zM250 275q0 16 9.5 20.5t40.5 4.5t40.5 -4.5t9.5 -20.5t-9.5 -20.5t-40.5 -4.5t-40.5 4.5
t-9.5 20.5zM50 275q0 16 9.5 20.5t40.5 4.5t40.5 -4.5t9.5 -20.5t-9.5 -20.5t-40.5 -4.5t-40.5 4.5t-9.5 20.5zM300 375q0 16 9.5 20.5t40.5 4.5t40.5 -4.5t9.5 -20.5t-9.5 -20.5t-40.5 -4.5t-40.5 4.5t-9.5 20.5zM0 375q0 16 9.5 20.5t40.5 4.5t40.5 -4.5t9.5 -20.5
t-9.5 -20.5t-40.5 -4.5t-40.5 4.5t-9.5 20.5zM300 475q0 16 9.5 20.5t40.5 4.5t40.5 -4.5t9.5 -20.5t-9.5 -20.5t-40.5 -4.5t-40.5 4.5t-9.5 20.5zM0 475q0 16 9.5 20.5t40.5 4.5t40.5 -4.5t9.5 -20.5t-9.5 -20.5t-40.5 -4.5t-40.5 4.5t-9.5 20.5z" />
    <glyph glyph-name="w" unicode="w" 
d="M250 75q0 16 9.5 20.5t40.5 4.5t40.5 -4.5t9.5 -20.5t-9.5 -20.5t-40.5 -4.5t-40.5 4.5t-9.5 20.5zM50 75q0 16 9.5 20.5t40.5 4.5t40.5 -4.5t9.5 -20.5t-9.5 -20.5t-40.5 -4.5t-40.5 4.5t-9.5 20.5zM0 175q0 15 15 19q24 6 185 6q173 0 191 -9q9 -4 9 -16q0 -15 -15 -19
q-24 -6 -185 -6q-173 0 -191 9q-9 4 -9 16zM300 275q0 16 9.5 20.5t40.5 4.5t40.5 -4.5t9.5 -20.5t-9.5 -20.5t-40.5 -4.5t-40.5 4.5t-9.5 20.5zM150 275q0 16 9.5 20.5t40.5 4.5t40.5 -4.5t9.5 -20.5t-9.5 -20.5t-40.5 -4.5t-40.5 4.5t-9.5 20.5zM0 275q0 16 9.5 20.5
t40.5 4.5t40.5 -4.5t9.5 -20.5t-9.5 -20.5t-40.5 -4.5t-40.5 4.5t-9.5 20.5zM300 375q0 16 9.5 20.5t40.5 4.5t40.5 -4.5t9.5 -20.5t-9.5 -20.5t-40.5 -4.5t-40.5 4.5t-9.5 20.5zM0 375q0 16 9.5 20.5t40.5 4.5t40.5 -4.5t9.5 -20.5t-9.5 -20.5t-40.5 -4.5t-40.5 4.5
t-9.5 20.5zM300 475q0 16 9.5 20.5t40.5 4.5t40.5 -4.5t9.5 -20.5t-9.5 -20.5t-40.5 -4.5t-40.5 4.5t-9.5 20.5zM0 475q0 16 9.5 20.5t40.5 4.5t40.5 -4.5t9.5 -20.5t-9.5 -20.5t-40.5 -4.5t-40.5 4.5t-9.5 20.5z" />
    <glyph glyph-name="x" unicode="x" 
d="M250 75q0 16 9.5 20.5t40.5 4.5t40.5 -4.5t9.5 -20.5t-9.5 -20.5t-40.5 -4.5t-40.5 4.5t-9.5 20.5zM0 75q0 16 9.5 20.5t40.5 4.5t40.5 -4.5t9.5 -20.5t-9.5 -20.5t-40.5 -4.5t-40.5 4.5t-9.5 20.5zM200 175q0 16 9.5 20.5t40.5 4.5t40.5 -4.5t9.5 -20.5t-9.5 -20.5
t-40.5 -4.5t-40.5 4.5t-9.5 20.5zM50 175q0 16 9.5 20.5t40.5 4.5t40.5 -4.5t9.5 -20.5t-9.5 -20.5t-40.5 -4.5t-40.5 4.5t-9.5 20.5zM100 275q0 17 13 21t62 4t62 -4t13 -21t-13 -21t-62 -4t-62 4t-13 21zM200 375q0 16 9.5 20.5t40.5 4.5t40.5 -4.5t9.5 -20.5t-9.5 -20.5
t-40.5 -4.5t-40.5 4.5t-9.5 20.5zM50 375q0 16 9.5 20.5t40.5 4.5t40.5 -4.5t9.5 -20.5t-9.5 -20.5t-40.5 -4.5t-40.5 4.5t-9.5 20.5zM250 475q0 16 9.5 20.5t40.5 4.5t40.5 -4.5t9.5 -20.5t-9.5 -20.5t-40.5 -4.5t-40.5 4.5t-9.5 20.5zM0 475q0 16 9.5 20.5t40.5 4.5
t40.5 -4.5t9.5 -20.5t-9.5 -20.5t-40.5 -4.5t-40.5 4.5t-9.5 20.5z" />
    <glyph glyph-name="y" unicode="y" 
d="M50 -125q0 9 2.5 13.5t17 7.5t36.5 3.5t69 0.5t69 -0.5t36.5 -3.5t17 -7.5t2.5 -13.5t-2.5 -13.5t-17 -7.5t-36.5 -3.5t-69 -0.5t-69 0.5t-36.5 3.5t-17 7.5t-2.5 13.5zM250 -25q0 16 9.5 20.5t40.5 4.5t40.5 -4.5t9.5 -20.5t-9.5 -20.5t-40.5 -4.5t-40.5 4.5t-9.5 20.5z
M0 -25q0 16 9.5 20.5t40.5 4.5t40.5 -4.5t9.5 -20.5t-9.5 -20.5t-40.5 -4.5t-40.5 4.5t-9.5 20.5zM250 75q0 16 9.5 20.5t40.5 4.5t40.5 -4.5t9.5 -20.5t-9.5 -20.5t-40.5 -4.5t-40.5 4.5t-9.5 20.5zM50 175q0 16 15 20q19 5 135 5q129 0 143 -9q7 -4 7 -16q0 -16 -15 -20
q-19 -5 -135 -5q-129 0 -143 9q-7 4 -7 16zM200 275q0 17 13 21t62 4t62 -4t13 -21t-13 -21t-62 -4t-62 4t-13 21zM0 275q0 16 9.5 20.5t40.5 4.5t40.5 -4.5t9.5 -20.5t-9.5 -20.5t-40.5 -4.5t-40.5 4.5t-9.5 20.5zM250 375q0 16 9.5 20.5t40.5 4.5t40.5 -4.5t9.5 -20.5
t-9.5 -20.5t-40.5 -4.5t-40.5 4.5t-9.5 20.5zM0 375q0 16 9.5 20.5t40.5 4.5t40.5 -4.5t9.5 -20.5t-9.5 -20.5t-40.5 -4.5t-40.5 4.5t-9.5 20.5zM250 475q0 16 9.5 20.5t40.5 4.5t40.5 -4.5t9.5 -20.5t-9.5 -20.5t-40.5 -4.5t-40.5 4.5t-9.5 20.5zM0 475q0 16 9.5 20.5
t40.5 4.5t40.5 -4.5t9.5 -20.5t-9.5 -20.5t-40.5 -4.5t-40.5 4.5t-9.5 20.5z" />
    <glyph glyph-name="z" unicode="z" 
d="M0 75q0 15 15 19q24 6 185 6q173 0 191 -9q9 -4 9 -16q0 -15 -15 -19q-24 -6 -185 -6q-173 0 -191 9q-9 4 -9 16zM100 175q0 16 9.5 20.5t40.5 4.5t40.5 -4.5t9.5 -20.5t-9.5 -20.5t-40.5 -4.5t-40.5 4.5t-9.5 20.5zM150 275q0 17 13 21t62 4t62 -4t13 -21t-13 -21
t-62 -4t-62 4t-13 21zM250 375q0 16 9.5 20.5t40.5 4.5t40.5 -4.5t9.5 -20.5t-9.5 -20.5t-40.5 -4.5t-40.5 4.5t-9.5 20.5zM0 475q0 15 15 19q24 6 185 6q173 0 191 -9q9 -4 9 -16q0 -15 -15 -19q-24 -6 -185 -6q-173 0 -191 9q-9 4 -9 16z" />
    <glyph glyph-name="braceleft" unicode="{" 
d="M200 75q0 17 16 21t84 4t84 -4t16 -21t-16 -21t-84 -4t-84 4t-16 21zM150 175q0 16 9.5 20.5t40.5 4.5t40.5 -4.5t9.5 -20.5t-9.5 -20.5t-40.5 -4.5t-40.5 4.5t-9.5 20.5zM200 275q0 16 9.5 20.5t40.5 4.5t40.5 -4.5t9.5 -20.5t-9.5 -20.5t-40.5 -4.5t-40.5 4.5
t-9.5 20.5zM100 375q0 17 13 21t62 4t62 -4t13 -21t-13 -21t-62 -4t-62 4t-13 21zM200 475q0 16 9.5 20.5t40.5 4.5t40.5 -4.5t9.5 -20.5t-9.5 -20.5t-40.5 -4.5t-40.5 4.5t-9.5 20.5zM150 575q0 16 9.5 20.5t40.5 4.5t40.5 -4.5t9.5 -20.5t-9.5 -20.5t-40.5 -4.5t-40.5 4.5
t-9.5 20.5zM200 675q0 17 16 21t84 4t84 -4t16 -21t-16 -21t-84 -4t-84 4t-16 21z" />
    <glyph glyph-name="bar" unicode="|" 
d="M150 75q0 16 9.5 20.5t40.5 4.5t40.5 -4.5t9.5 -20.5t-9.5 -20.5t-40.5 -4.5t-40.5 4.5t-9.5 20.5zM150 175q0 16 9.5 20.5t40.5 4.5t40.5 -4.5t9.5 -20.5t-9.5 -20.5t-40.5 -4.5t-40.5 4.5t-9.5 20.5zM150 275q0 16 9.5 20.5t40.5 4.5t40.5 -4.5t9.5 -20.5t-9.5 -20.5
t-40.5 -4.5t-40.5 4.5t-9.5 20.5zM150 375q0 16 9.5 20.5t40.5 4.5t40.5 -4.5t9.5 -20.5t-9.5 -20.5t-40.5 -4.5t-40.5 4.5t-9.5 20.5zM150 475q0 16 9.5 20.5t40.5 4.5t40.5 -4.5t9.5 -20.5t-9.5 -20.5t-40.5 -4.5t-40.5 4.5t-9.5 20.5zM150 575q0 16 9.5 20.5t40.5 4.5
t40.5 -4.5t9.5 -20.5t-9.5 -20.5t-40.5 -4.5t-40.5 4.5t-9.5 20.5zM150 675q0 16 9.5 20.5t40.5 4.5t40.5 -4.5t9.5 -20.5t-9.5 -20.5t-40.5 -4.5t-40.5 4.5t-9.5 20.5z" />
    <glyph glyph-name="braceright" unicode="}" 
d="M0 75q0 17 16 21t84 4t84 -4t16 -21t-16 -21t-84 -4t-84 4t-16 21zM150 175q0 16 9.5 20.5t40.5 4.5t40.5 -4.5t9.5 -20.5t-9.5 -20.5t-40.5 -4.5t-40.5 4.5t-9.5 20.5zM100 275q0 16 9.5 20.5t40.5 4.5t40.5 -4.5t9.5 -20.5t-9.5 -20.5t-40.5 -4.5t-40.5 4.5t-9.5 20.5z
M150 375q0 17 13 21t62 4t62 -4t13 -21t-13 -21t-62 -4t-62 4t-13 21zM100 475q0 16 9.5 20.5t40.5 4.5t40.5 -4.5t9.5 -20.5t-9.5 -20.5t-40.5 -4.5t-40.5 4.5t-9.5 20.5zM150 575q0 16 9.5 20.5t40.5 4.5t40.5 -4.5t9.5 -20.5t-9.5 -20.5t-40.5 -4.5t-40.5 4.5t-9.5 20.5z
M0 675q0 17 16 21t84 4t84 -4t16 -21t-16 -21t-84 -4t-84 4t-16 21z" />
    <glyph glyph-name="asciitilde" unicode="~" 
d="M200 475q0 17 13 21t62 4t62 -4t13 -21t-13 -21t-62 -4t-62 4t-13 21zM0 475q0 16 9.5 20.5t40.5 4.5t40.5 -4.5t9.5 -20.5t-9.5 -20.5t-40.5 -4.5t-40.5 4.5t-9.5 20.5zM300 575q0 16 9.5 20.5t40.5 4.5t40.5 -4.5t9.5 -20.5t-9.5 -20.5t-40.5 -4.5t-40.5 4.5t-9.5 20.5
zM150 575q0 16 9.5 20.5t40.5 4.5t40.5 -4.5t9.5 -20.5t-9.5 -20.5t-40.5 -4.5t-40.5 4.5t-9.5 20.5zM0 575q0 16 9.5 20.5t40.5 4.5t40.5 -4.5t9.5 -20.5t-9.5 -20.5t-40.5 -4.5t-40.5 4.5t-9.5 20.5zM300 675q0 16 9.5 20.5t40.5 4.5t40.5 -4.5t9.5 -20.5t-9.5 -20.5
t-40.5 -4.5t-40.5 4.5t-9.5 20.5zM50 675q0 17 13 21t62 4t62 -4t13 -21t-13 -21t-62 -4t-62 4t-13 21z" />
    <glyph glyph-name="uni007F" 
d="M100 -125q0 16 9.5 20.5t40.5 4.5t40.5 -4.5t9.5 -20.5t-9.5 -20.5t-40.5 -4.5t-40.5 4.5t-9.5 20.5zM100 -25q0 16 9.5 20.5t40.5 4.5t40.5 -4.5t9.5 -20.5t-9.5 -20.5t-40.5 -4.5t-40.5 4.5t-9.5 20.5zM100 75q0 16 9.5 20.5t40.5 4.5t40.5 -4.5t9.5 -20.5t-9.5 -20.5
t-40.5 -4.5t-40.5 4.5t-9.5 20.5zM100 175q0 16 9.5 20.5t40.5 4.5t40.5 -4.5t9.5 -20.5t-9.5 -20.5t-40.5 -4.5t-40.5 4.5t-9.5 20.5zM0 275q0 16 15 20q19 5 135 5q129 0 143 -9q7 -4 7 -16q0 -16 -15 -20q-19 -5 -135 -5q-129 0 -143 9q-7 4 -7 16zM150 375
q0 16 9.5 20.5t40.5 4.5t40.5 -4.5t9.5 -20.5t-9.5 -20.5t-40.5 -4.5t-40.5 4.5t-9.5 20.5zM0 375q0 16 9.5 20.5t40.5 4.5t40.5 -4.5t9.5 -20.5t-9.5 -20.5t-40.5 -4.5t-40.5 4.5t-9.5 20.5zM150 475q0 16 9.5 20.5t40.5 4.5t40.5 -4.5t9.5 -20.5t-9.5 -20.5t-40.5 -4.5
t-40.5 4.5t-9.5 20.5zM0 475q0 16 9.5 20.5t40.5 4.5t40.5 -4.5t9.5 -20.5t-9.5 -20.5t-40.5 -4.5t-40.5 4.5t-9.5 20.5zM150 575q0 16 9.5 20.5t40.5 4.5t40.5 -4.5t9.5 -20.5t-9.5 -20.5t-40.5 -4.5t-40.5 4.5t-9.5 20.5zM0 575q0 16 9.5 20.5t40.5 4.5t40.5 -4.5
t9.5 -20.5t-9.5 -20.5t-40.5 -4.5t-40.5 4.5t-9.5 20.5zM0 675q0 17 16 21t84 4t84 -4t16 -21t-16 -21t-84 -4t-84 4t-16 21z" />
    <glyph glyph-name="uni0080" 
d="M200 -125q0 17 13 21t62 4t62 -4t13 -21t-13 -21t-62 -4t-62 4t-13 21zM300 -25q0 16 9.5 20.5t40.5 4.5t40.5 -4.5t9.5 -20.5t-9.5 -20.5t-40.5 -4.5t-40.5 4.5t-9.5 20.5zM150 -25q0 16 9.5 20.5t40.5 4.5t40.5 -4.5t9.5 -20.5t-9.5 -20.5t-40.5 -4.5t-40.5 4.5
t-9.5 20.5zM300 75q0 16 9.5 20.5t40.5 4.5t40.5 -4.5t9.5 -20.5t-9.5 -20.5t-40.5 -4.5t-40.5 4.5t-9.5 20.5zM150 75q0 16 9.5 20.5t40.5 4.5t40.5 -4.5t9.5 -20.5t-9.5 -20.5t-40.5 -4.5t-40.5 4.5t-9.5 20.5zM300 175q0 16 9.5 20.5t40.5 4.5t40.5 -4.5t9.5 -20.5
t-9.5 -20.5t-40.5 -4.5t-40.5 4.5t-9.5 20.5zM150 175q0 16 9.5 20.5t40.5 4.5t40.5 -4.5t9.5 -20.5t-9.5 -20.5t-40.5 -4.5t-40.5 4.5t-9.5 20.5zM50 275q0 16 15 20q19 5 135 5q129 0 143 -9q7 -4 7 -16q0 -16 -15 -20q-19 -5 -135 -5q-129 0 -143 9q-7 4 -7 16zM150 375
q0 16 9.5 20.5t40.5 4.5t40.5 -4.5t9.5 -20.5t-9.5 -20.5t-40.5 -4.5t-40.5 4.5t-9.5 20.5zM0 375q0 16 9.5 20.5t40.5 4.5t40.5 -4.5t9.5 -20.5t-9.5 -20.5t-40.5 -4.5t-40.5 4.5t-9.5 20.5zM50 475q0 17 13 21t62 4t62 -4t13 -21t-13 -21t-62 -4t-62 4t-13 21zM150 575
q0 16 9.5 20.5t40.5 4.5t40.5 -4.5t9.5 -20.5t-9.5 -20.5t-40.5 -4.5t-40.5 4.5t-9.5 20.5zM0 575q0 16 9.5 20.5t40.5 4.5t40.5 -4.5t9.5 -20.5t-9.5 -20.5t-40.5 -4.5t-40.5 4.5t-9.5 20.5zM50 675q0 17 13 21t62 4t62 -4t13 -21t-13 -21t-62 -4t-62 4t-13 21z" />
    <glyph glyph-name="uni0081" 
d="M200 -125q0 17 16 21t84 4t84 -4t16 -21t-16 -21t-84 -4t-84 4t-16 21zM250 -25q0 16 9.5 20.5t40.5 4.5t40.5 -4.5t9.5 -20.5t-9.5 -20.5t-40.5 -4.5t-40.5 4.5t-9.5 20.5zM250 75q0 16 9.5 20.5t40.5 4.5t40.5 -4.5t9.5 -20.5t-9.5 -20.5t-40.5 -4.5t-40.5 4.5
t-9.5 20.5zM200 175q0 17 13 21t62 4t62 -4t13 -21t-13 -21t-62 -4t-62 4t-13 21zM250 275q0 16 9.5 20.5t40.5 4.5t40.5 -4.5t9.5 -20.5t-9.5 -20.5t-40.5 -4.5t-40.5 4.5t-9.5 20.5zM50 275q0 17 13 21t62 4t62 -4t13 -21t-13 -21t-62 -4t-62 4t-13 21zM150 375
q0 16 9.5 20.5t40.5 4.5t40.5 -4.5t9.5 -20.5t-9.5 -20.5t-40.5 -4.5t-40.5 4.5t-9.5 20.5zM0 375q0 16 9.5 20.5t40.5 4.5t40.5 -4.5t9.5 -20.5t-9.5 -20.5t-40.5 -4.5t-40.5 4.5t-9.5 20.5zM50 475q0 17 13 21t62 4t62 -4t13 -21t-13 -21t-62 -4t-62 4t-13 21zM150 575
q0 16 9.5 20.5t40.5 4.5t40.5 -4.5t9.5 -20.5t-9.5 -20.5t-40.5 -4.5t-40.5 4.5t-9.5 20.5zM0 575q0 16 9.5 20.5t40.5 4.5t40.5 -4.5t9.5 -20.5t-9.5 -20.5t-40.5 -4.5t-40.5 4.5t-9.5 20.5zM50 675q0 17 13 21t62 4t62 -4t13 -21t-13 -21t-62 -4t-62 4t-13 21z" />
    <glyph glyph-name="uni0082" 
d="M150 -125q0 9 2.5 13.5t17 7.5t36.5 3.5t69 0.5t69 -0.5t36.5 -3.5t17 -7.5t2.5 -13.5t-2.5 -13.5t-17 -7.5t-36.5 -3.5t-69 -0.5t-69 0.5t-36.5 3.5t-17 7.5t-2.5 13.5zM200 -25q0 16 9.5 20.5t40.5 4.5t40.5 -4.5t9.5 -20.5t-9.5 -20.5t-40.5 -4.5t-40.5 4.5t-9.5 20.5
zM250 75q0 16 9.5 20.5t40.5 4.5t40.5 -4.5t9.5 -20.5t-9.5 -20.5t-40.5 -4.5t-40.5 4.5t-9.5 20.5zM300 175q0 16 9.5 20.5t40.5 4.5t40.5 -4.5t9.5 -20.5t-9.5 -20.5t-40.5 -4.5t-40.5 4.5t-9.5 20.5zM150 175q0 16 9.5 20.5t40.5 4.5t40.5 -4.5t9.5 -20.5t-9.5 -20.5
t-40.5 -4.5t-40.5 4.5t-9.5 20.5zM50 275q0 16 15 20q19 5 135 5q129 0 143 -9q7 -4 7 -16q0 -16 -15 -20q-19 -5 -135 -5q-129 0 -143 9q-7 4 -7 16zM150 375q0 16 9.5 20.5t40.5 4.5t40.5 -4.5t9.5 -20.5t-9.5 -20.5t-40.5 -4.5t-40.5 4.5t-9.5 20.5zM0 375q0 16 9.5 20.5
t40.5 4.5t40.5 -4.5t9.5 -20.5t-9.5 -20.5t-40.5 -4.5t-40.5 4.5t-9.5 20.5zM50 475q0 17 13 21t62 4t62 -4t13 -21t-13 -21t-62 -4t-62 4t-13 21zM150 575q0 16 9.5 20.5t40.5 4.5t40.5 -4.5t9.5 -20.5t-9.5 -20.5t-40.5 -4.5t-40.5 4.5t-9.5 20.5zM0 575q0 16 9.5 20.5
t40.5 4.5t40.5 -4.5t9.5 -20.5t-9.5 -20.5t-40.5 -4.5t-40.5 4.5t-9.5 20.5zM50 675q0 17 13 21t62 4t62 -4t13 -21t-13 -21t-62 -4t-62 4t-13 21z" />
    <glyph glyph-name="uni0083" 
d="M150 -125q0 17 16 21t84 4t84 -4t16 -21t-16 -21t-84 -4t-84 4t-16 21zM300 -25q0 16 9.5 20.5t40.5 4.5t40.5 -4.5t9.5 -20.5t-9.5 -20.5t-40.5 -4.5t-40.5 4.5t-9.5 20.5zM200 75q0 17 13 21t62 4t62 -4t13 -21t-13 -21t-62 -4t-62 4t-13 21zM300 175q0 16 9.5 20.5
t40.5 4.5t40.5 -4.5t9.5 -20.5t-9.5 -20.5t-40.5 -4.5t-40.5 4.5t-9.5 20.5zM50 275q0 15 15 19q22 6 160 6q151 0 167 -9q8 -4 8 -16q0 -15 -15 -19q-22 -6 -160 -6q-151 0 -167 9q-8 4 -8 16zM150 375q0 16 9.5 20.5t40.5 4.5t40.5 -4.5t9.5 -20.5t-9.5 -20.5t-40.5 -4.5
t-40.5 4.5t-9.5 20.5zM0 375q0 16 9.5 20.5t40.5 4.5t40.5 -4.5t9.5 -20.5t-9.5 -20.5t-40.5 -4.5t-40.5 4.5t-9.5 20.5zM50 475q0 17 13 21t62 4t62 -4t13 -21t-13 -21t-62 -4t-62 4t-13 21zM150 575q0 16 9.5 20.5t40.5 4.5t40.5 -4.5t9.5 -20.5t-9.5 -20.5t-40.5 -4.5
t-40.5 4.5t-9.5 20.5zM0 575q0 16 9.5 20.5t40.5 4.5t40.5 -4.5t9.5 -20.5t-9.5 -20.5t-40.5 -4.5t-40.5 4.5t-9.5 20.5zM50 675q0 17 13 21t62 4t62 -4t13 -21t-13 -21t-62 -4t-62 4t-13 21z" />
    <glyph glyph-name="uni0084" 
d="M250 -125q0 16 9.5 20.5t40.5 4.5t40.5 -4.5t9.5 -20.5t-9.5 -20.5t-40.5 -4.5t-40.5 4.5t-9.5 20.5zM100 -25q0 16 15 20q19 5 135 5q129 0 143 -9q7 -4 7 -16q0 -16 -15 -20q-19 -5 -135 -5q-129 0 -143 9q-7 4 -7 16zM150 75q0 17 16 21t84 4t84 -4t16 -21t-16 -21
t-84 -4t-84 4t-16 21zM200 175q0 17 13 21t62 4t62 -4t13 -21t-13 -21t-62 -4t-62 4t-13 21zM250 275q0 16 9.5 20.5t40.5 4.5t40.5 -4.5t9.5 -20.5t-9.5 -20.5t-40.5 -4.5t-40.5 4.5t-9.5 20.5zM50 275q0 17 13 21t62 4t62 -4t13 -21t-13 -21t-62 -4t-62 4t-13 21zM150 375
q0 16 9.5 20.5t40.5 4.5t40.5 -4.5t9.5 -20.5t-9.5 -20.5t-40.5 -4.5t-40.5 4.5t-9.5 20.5zM0 375q0 16 9.5 20.5t40.5 4.5t40.5 -4.5t9.5 -20.5t-9.5 -20.5t-40.5 -4.5t-40.5 4.5t-9.5 20.5zM50 475q0 17 13 21t62 4t62 -4t13 -21t-13 -21t-62 -4t-62 4t-13 21zM150 575
q0 16 9.5 20.5t40.5 4.5t40.5 -4.5t9.5 -20.5t-9.5 -20.5t-40.5 -4.5t-40.5 4.5t-9.5 20.5zM0 575q0 16 9.5 20.5t40.5 4.5t40.5 -4.5t9.5 -20.5t-9.5 -20.5t-40.5 -4.5t-40.5 4.5t-9.5 20.5zM50 675q0 17 13 21t62 4t62 -4t13 -21t-13 -21t-62 -4t-62 4t-13 21z" />
    <glyph glyph-name="uni0085" unicode="&#x85;" 
d="M150 -125q0 17 16 21t84 4t84 -4t16 -21t-16 -21t-84 -4t-84 4t-16 21zM300 -25q0 16 9.5 20.5t40.5 4.5t40.5 -4.5t9.5 -20.5t-9.5 -20.5t-40.5 -4.5t-40.5 4.5t-9.5 20.5zM150 75q0 17 16 21t84 4t84 -4t16 -21t-16 -21t-84 -4t-84 4t-16 21zM150 175q0 16 9.5 20.5
t40.5 4.5t40.5 -4.5t9.5 -20.5t-9.5 -20.5t-40.5 -4.5t-40.5 4.5t-9.5 20.5zM50 275q0 15 15 19q22 6 160 6q151 0 167 -9q8 -4 8 -16q0 -15 -15 -19q-22 -6 -160 -6q-151 0 -167 9q-8 4 -8 16zM150 375q0 16 9.5 20.5t40.5 4.5t40.5 -4.5t9.5 -20.5t-9.5 -20.5t-40.5 -4.5
t-40.5 4.5t-9.5 20.5zM0 375q0 16 9.5 20.5t40.5 4.5t40.5 -4.5t9.5 -20.5t-9.5 -20.5t-40.5 -4.5t-40.5 4.5t-9.5 20.5zM50 475q0 17 13 21t62 4t62 -4t13 -21t-13 -21t-62 -4t-62 4t-13 21zM150 575q0 16 9.5 20.5t40.5 4.5t40.5 -4.5t9.5 -20.5t-9.5 -20.5t-40.5 -4.5
t-40.5 4.5t-9.5 20.5zM0 575q0 16 9.5 20.5t40.5 4.5t40.5 -4.5t9.5 -20.5t-9.5 -20.5t-40.5 -4.5t-40.5 4.5t-9.5 20.5zM50 675q0 17 13 21t62 4t62 -4t13 -21t-13 -21t-62 -4t-62 4t-13 21z" />
    <glyph glyph-name="uni0086" 
d="M200 -125q0 17 13 21t62 4t62 -4t13 -21t-13 -21t-62 -4t-62 4t-13 21zM300 -25q0 16 9.5 20.5t40.5 4.5t40.5 -4.5t9.5 -20.5t-9.5 -20.5t-40.5 -4.5t-40.5 4.5t-9.5 20.5zM150 -25q0 16 9.5 20.5t40.5 4.5t40.5 -4.5t9.5 -20.5t-9.5 -20.5t-40.5 -4.5t-40.5 4.5
t-9.5 20.5zM150 75q0 17 16 21t84 4t84 -4t16 -21t-16 -21t-84 -4t-84 4t-16 21zM200 175q0 16 9.5 20.5t40.5 4.5t40.5 -4.5t9.5 -20.5t-9.5 -20.5t-40.5 -4.5t-40.5 4.5t-9.5 20.5zM250 275q0 17 13 21t62 4q50 0 62.5 -4t12.5 -21t-12.5 -21t-62.5 -4q-49 0 -62 4t-13 21
zM50 275q0 17 13 21t62 4t62 -4t13 -21t-13 -21t-62 -4t-62 4t-13 21zM150 375q0 16 9.5 20.5t40.5 4.5t40.5 -4.5t9.5 -20.5t-9.5 -20.5t-40.5 -4.5t-40.5 4.5t-9.5 20.5zM0 375q0 16 9.5 20.5t40.5 4.5t40.5 -4.5t9.5 -20.5t-9.5 -20.5t-40.5 -4.5t-40.5 4.5t-9.5 20.5z
M50 475q0 17 13 21t62 4t62 -4t13 -21t-13 -21t-62 -4t-62 4t-13 21zM150 575q0 16 9.5 20.5t40.5 4.5t40.5 -4.5t9.5 -20.5t-9.5 -20.5t-40.5 -4.5t-40.5 4.5t-9.5 20.5zM0 575q0 16 9.5 20.5t40.5 4.5t40.5 -4.5t9.5 -20.5t-9.5 -20.5t-40.5 -4.5t-40.5 4.5t-9.5 20.5z
M50 675q0 17 13 21t62 4t62 -4t13 -21t-13 -21t-62 -4t-62 4t-13 21z" />
    <glyph glyph-name="uni0087" 
d="M200 -125q0 16 9.5 20.5t40.5 4.5t40.5 -4.5t9.5 -20.5t-9.5 -20.5t-40.5 -4.5t-40.5 4.5t-9.5 20.5zM200 -25q0 16 9.5 20.5t40.5 4.5t40.5 -4.5t9.5 -20.5t-9.5 -20.5t-40.5 -4.5t-40.5 4.5t-9.5 20.5zM250 75q0 16 9.5 20.5t40.5 4.5t40.5 -4.5t9.5 -20.5t-9.5 -20.5
t-40.5 -4.5t-40.5 4.5t-9.5 20.5zM300 175q0 16 9.5 20.5t40.5 4.5t40.5 -4.5t9.5 -20.5t-9.5 -20.5t-40.5 -4.5t-40.5 4.5t-9.5 20.5zM50 275q0 15 15 19q22 6 160 6q151 0 167 -9q8 -4 8 -16q0 -15 -15 -19q-22 -6 -160 -6q-151 0 -167 9q-8 4 -8 16zM150 375
q0 16 9.5 20.5t40.5 4.5t40.5 -4.5t9.5 -20.5t-9.5 -20.5t-40.5 -4.5t-40.5 4.5t-9.5 20.5zM0 375q0 16 9.5 20.5t40.5 4.5t40.5 -4.5t9.5 -20.5t-9.5 -20.5t-40.5 -4.5t-40.5 4.5t-9.5 20.5zM50 475q0 17 13 21t62 4t62 -4t13 -21t-13 -21t-62 -4t-62 4t-13 21zM150 575
q0 16 9.5 20.5t40.5 4.5t40.5 -4.5t9.5 -20.5t-9.5 -20.5t-40.5 -4.5t-40.5 4.5t-9.5 20.5zM0 575q0 16 9.5 20.5t40.5 4.5t40.5 -4.5t9.5 -20.5t-9.5 -20.5t-40.5 -4.5t-40.5 4.5t-9.5 20.5zM50 675q0 17 13 21t62 4t62 -4t13 -21t-13 -21t-62 -4t-62 4t-13 21z" />
    <glyph glyph-name="uni0088" 
d="M200 -125q0 17 13 21t62 4t62 -4t13 -21t-13 -21t-62 -4t-62 4t-13 21zM300 -25q0 16 9.5 20.5t40.5 4.5t40.5 -4.5t9.5 -20.5t-9.5 -20.5t-40.5 -4.5t-40.5 4.5t-9.5 20.5zM150 -25q0 16 9.5 20.5t40.5 4.5t40.5 -4.5t9.5 -20.5t-9.5 -20.5t-40.5 -4.5t-40.5 4.5
t-9.5 20.5zM200 75q0 17 13 21t62 4t62 -4t13 -21t-13 -21t-62 -4t-62 4t-13 21zM300 175q0 16 9.5 20.5t40.5 4.5t40.5 -4.5t9.5 -20.5t-9.5 -20.5t-40.5 -4.5t-40.5 4.5t-9.5 20.5zM150 175q0 16 9.5 20.5t40.5 4.5t40.5 -4.5t9.5 -20.5t-9.5 -20.5t-40.5 -4.5t-40.5 4.5
t-9.5 20.5zM50 275q0 16 15 20q19 5 135 5q129 0 143 -9q7 -4 7 -16q0 -16 -15 -20q-19 -5 -135 -5q-129 0 -143 9q-7 4 -7 16zM150 375q0 16 9.5 20.5t40.5 4.5t40.5 -4.5t9.5 -20.5t-9.5 -20.5t-40.5 -4.5t-40.5 4.5t-9.5 20.5zM0 375q0 16 9.5 20.5t40.5 4.5t40.5 -4.5
t9.5 -20.5t-9.5 -20.5t-40.5 -4.5t-40.5 4.5t-9.5 20.5zM50 475q0 17 13 21t62 4t62 -4t13 -21t-13 -21t-62 -4t-62 4t-13 21zM150 575q0 16 9.5 20.5t40.5 4.5t40.5 -4.5t9.5 -20.5t-9.5 -20.5t-40.5 -4.5t-40.5 4.5t-9.5 20.5zM0 575q0 16 9.5 20.5t40.5 4.5t40.5 -4.5
t9.5 -20.5t-9.5 -20.5t-40.5 -4.5t-40.5 4.5t-9.5 20.5zM50 675q0 17 13 21t62 4t62 -4t13 -21t-13 -21t-62 -4t-62 4t-13 21z" />
    <glyph glyph-name="uni0089" 
d="M150 -125q0 17 13 21t62 4t62 -4t13 -21t-13 -21t-62 -4t-62 4t-13 21zM250 -25q0 16 9.5 20.5t40.5 4.5t40.5 -4.5t9.5 -20.5t-9.5 -20.5t-40.5 -4.5t-40.5 4.5t-9.5 20.5zM200 75q0 17 16 21t84 4t84 -4t16 -21t-16 -21t-84 -4t-84 4t-16 21zM300 175q0 16 9.5 20.5
t40.5 4.5t40.5 -4.5t9.5 -20.5t-9.5 -20.5t-40.5 -4.5t-40.5 4.5t-9.5 20.5zM150 175q0 16 9.5 20.5t40.5 4.5t40.5 -4.5t9.5 -20.5t-9.5 -20.5t-40.5 -4.5t-40.5 4.5t-9.5 20.5zM50 275q0 16 15 20q19 5 135 5q129 0 143 -9q7 -4 7 -16q0 -16 -15 -20q-19 -5 -135 -5
q-129 0 -143 9q-7 4 -7 16zM150 375q0 16 9.5 20.5t40.5 4.5t40.5 -4.5t9.5 -20.5t-9.5 -20.5t-40.5 -4.5t-40.5 4.5t-9.5 20.5zM0 375q0 16 9.5 20.5t40.5 4.5t40.5 -4.5t9.5 -20.5t-9.5 -20.5t-40.5 -4.5t-40.5 4.5t-9.5 20.5zM50 475q0 17 13 21t62 4t62 -4t13 -21
t-13 -21t-62 -4t-62 4t-13 21zM150 575q0 16 9.5 20.5t40.5 4.5t40.5 -4.5t9.5 -20.5t-9.5 -20.5t-40.5 -4.5t-40.5 4.5t-9.5 20.5zM0 575q0 16 9.5 20.5t40.5 4.5t40.5 -4.5t9.5 -20.5t-9.5 -20.5t-40.5 -4.5t-40.5 4.5t-9.5 20.5zM50 675q0 17 13 21t62 4t62 -4t13 -21
t-13 -21t-62 -4t-62 4t-13 21z" />
    <glyph glyph-name="uni008A" 
d="M300 -125q0 16 9.5 20.5t40.5 4.5t40.5 -4.5t9.5 -20.5t-9.5 -20.5t-40.5 -4.5t-40.5 4.5t-9.5 20.5zM150 -125q0 16 9.5 20.5t40.5 4.5t40.5 -4.5t9.5 -20.5t-9.5 -20.5t-40.5 -4.5t-40.5 4.5t-9.5 20.5zM300 -25q0 16 9.5 20.5t40.5 4.5t40.5 -4.5t9.5 -20.5
t-9.5 -20.5t-40.5 -4.5t-40.5 4.5t-9.5 20.5zM150 -25q0 16 9.5 20.5t40.5 4.5t40.5 -4.5t9.5 -20.5t-9.5 -20.5t-40.5 -4.5t-40.5 4.5t-9.5 20.5zM150 75q0 9 2.5 13.5t17 7.5t36.5 3.5t69 0.5t69 -0.5t36.5 -3.5t17 -7.5t2.5 -13.5t-2.5 -13.5t-17 -7.5t-36.5 -3.5
t-69 -0.5t-69 0.5t-36.5 3.5t-17 7.5t-2.5 13.5zM300 175q0 16 9.5 20.5t40.5 4.5t40.5 -4.5t9.5 -20.5t-9.5 -20.5t-40.5 -4.5t-40.5 4.5t-9.5 20.5zM150 175q0 16 9.5 20.5t40.5 4.5t40.5 -4.5t9.5 -20.5t-9.5 -20.5t-40.5 -4.5t-40.5 4.5t-9.5 20.5zM50 275q0 16 15 20
q19 5 135 5q129 0 143 -9q7 -4 7 -16q0 -16 -15 -20q-19 -5 -135 -5q-129 0 -143 9q-7 4 -7 16zM150 375q0 16 9.5 20.5t40.5 4.5t40.5 -4.5t9.5 -20.5t-9.5 -20.5t-40.5 -4.5t-40.5 4.5t-9.5 20.5zM0 375q0 16 9.5 20.5t40.5 4.5t40.5 -4.5t9.5 -20.5t-9.5 -20.5
t-40.5 -4.5t-40.5 4.5t-9.5 20.5zM50 475q0 17 13 21t62 4t62 -4t13 -21t-13 -21t-62 -4t-62 4t-13 21zM150 575q0 16 9.5 20.5t40.5 4.5t40.5 -4.5t9.5 -20.5t-9.5 -20.5t-40.5 -4.5t-40.5 4.5t-9.5 20.5zM0 575q0 16 9.5 20.5t40.5 4.5t40.5 -4.5t9.5 -20.5t-9.5 -20.5
t-40.5 -4.5t-40.5 4.5t-9.5 20.5zM50 675q0 17 13 21t62 4t62 -4t13 -21t-13 -21t-62 -4t-62 4t-13 21z" />
    <glyph glyph-name="uni008B" 
d="M150 -125q0 17 16 21t84 4t84 -4t16 -21t-16 -21t-84 -4t-84 4t-16 21zM300 -25q0 16 9.5 20.5t40.5 4.5t40.5 -4.5t9.5 -20.5t-9.5 -20.5t-40.5 -4.5t-40.5 4.5t-9.5 20.5zM150 -25q0 16 9.5 20.5t40.5 4.5t40.5 -4.5t9.5 -20.5t-9.5 -20.5t-40.5 -4.5t-40.5 4.5
t-9.5 20.5zM150 75q0 17 16 21t84 4t84 -4t16 -21t-16 -21t-84 -4t-84 4t-16 21zM300 175q0 16 9.5 20.5t40.5 4.5t40.5 -4.5t9.5 -20.5t-9.5 -20.5t-40.5 -4.5t-40.5 4.5t-9.5 20.5zM150 175q0 16 9.5 20.5t40.5 4.5t40.5 -4.5t9.5 -20.5t-9.5 -20.5t-40.5 -4.5t-40.5 4.5
t-9.5 20.5zM50 275q0 16 15 20q19 5 135 5q129 0 143 -9q7 -4 7 -16q0 -16 -15 -20q-19 -5 -135 -5q-129 0 -143 9q-7 4 -7 16zM150 375q0 16 9.5 20.5t40.5 4.5t40.5 -4.5t9.5 -20.5t-9.5 -20.5t-40.5 -4.5t-40.5 4.5t-9.5 20.5zM0 375q0 16 9.5 20.5t40.5 4.5t40.5 -4.5
t9.5 -20.5t-9.5 -20.5t-40.5 -4.5t-40.5 4.5t-9.5 20.5zM50 475q0 17 13 21t62 4t62 -4t13 -21t-13 -21t-62 -4t-62 4t-13 21zM150 575q0 16 9.5 20.5t40.5 4.5t40.5 -4.5t9.5 -20.5t-9.5 -20.5t-40.5 -4.5t-40.5 4.5t-9.5 20.5zM0 575q0 16 9.5 20.5t40.5 4.5t40.5 -4.5
t9.5 -20.5t-9.5 -20.5t-40.5 -4.5t-40.5 4.5t-9.5 20.5zM50 675q0 17 13 21t62 4t62 -4t13 -21t-13 -21t-62 -4t-62 4t-13 21z" />
    <glyph glyph-name="uni008C" 
d="M200 -125q0 17 16 21t84 4t84 -4t16 -21t-16 -21t-84 -4t-84 4t-16 21zM150 -25q0 16 9.5 20.5t40.5 4.5t40.5 -4.5t9.5 -20.5t-9.5 -20.5t-40.5 -4.5t-40.5 4.5t-9.5 20.5zM150 75q0 16 9.5 20.5t40.5 4.5t40.5 -4.5t9.5 -20.5t-9.5 -20.5t-40.5 -4.5t-40.5 4.5
t-9.5 20.5zM150 175q0 16 9.5 20.5t40.5 4.5t40.5 -4.5t9.5 -20.5t-9.5 -20.5t-40.5 -4.5t-40.5 4.5t-9.5 20.5zM50 275q0 15 15 19q22 6 160 6q151 0 167 -9q8 -4 8 -16q0 -15 -15 -19q-22 -6 -160 -6q-151 0 -167 9q-8 4 -8 16zM150 375q0 16 9.5 20.5t40.5 4.5t40.5 -4.5
t9.5 -20.5t-9.5 -20.5t-40.5 -4.5t-40.5 4.5t-9.5 20.5zM0 375q0 16 9.5 20.5t40.5 4.5t40.5 -4.5t9.5 -20.5t-9.5 -20.5t-40.5 -4.5t-40.5 4.5t-9.5 20.5zM50 475q0 17 13 21t62 4t62 -4t13 -21t-13 -21t-62 -4t-62 4t-13 21zM150 575q0 16 9.5 20.5t40.5 4.5t40.5 -4.5
t9.5 -20.5t-9.5 -20.5t-40.5 -4.5t-40.5 4.5t-9.5 20.5zM0 575q0 16 9.5 20.5t40.5 4.5t40.5 -4.5t9.5 -20.5t-9.5 -20.5t-40.5 -4.5t-40.5 4.5t-9.5 20.5zM50 675q0 17 13 21t62 4t62 -4t13 -21t-13 -21t-62 -4t-62 4t-13 21z" />
    <glyph glyph-name="uni008D" 
d="M150 -125q0 17 16 21t84 4t84 -4t16 -21t-16 -21t-84 -4t-84 4t-16 21zM300 -25q0 16 9.5 20.5t40.5 4.5t40.5 -4.5t9.5 -20.5t-9.5 -20.5t-40.5 -4.5t-40.5 4.5t-9.5 20.5zM150 -25q0 16 9.5 20.5t40.5 4.5t40.5 -4.5t9.5 -20.5t-9.5 -20.5t-40.5 -4.5t-40.5 4.5
t-9.5 20.5zM300 75q0 16 9.5 20.5t40.5 4.5t40.5 -4.5t9.5 -20.5t-9.5 -20.5t-40.5 -4.5t-40.5 4.5t-9.5 20.5zM150 75q0 16 9.5 20.5t40.5 4.5t40.5 -4.5t9.5 -20.5t-9.5 -20.5t-40.5 -4.5t-40.5 4.5t-9.5 20.5zM300 175q0 16 9.5 20.5t40.5 4.5t40.5 -4.5t9.5 -20.5
t-9.5 -20.5t-40.5 -4.5t-40.5 4.5t-9.5 20.5zM150 175q0 16 9.5 20.5t40.5 4.5t40.5 -4.5t9.5 -20.5t-9.5 -20.5t-40.5 -4.5t-40.5 4.5t-9.5 20.5zM50 275q0 16 15 20q19 5 135 5q129 0 143 -9q7 -4 7 -16q0 -16 -15 -20q-19 -5 -135 -5q-129 0 -143 9q-7 4 -7 16zM150 375
q0 16 9.5 20.5t40.5 4.5t40.5 -4.5t9.5 -20.5t-9.5 -20.5t-40.5 -4.5t-40.5 4.5t-9.5 20.5zM0 375q0 16 9.5 20.5t40.5 4.5t40.5 -4.5t9.5 -20.5t-9.5 -20.5t-40.5 -4.5t-40.5 4.5t-9.5 20.5zM50 475q0 17 13 21t62 4t62 -4t13 -21t-13 -21t-62 -4t-62 4t-13 21zM150 575
q0 16 9.5 20.5t40.5 4.5t40.5 -4.5t9.5 -20.5t-9.5 -20.5t-40.5 -4.5t-40.5 4.5t-9.5 20.5zM0 575q0 16 9.5 20.5t40.5 4.5t40.5 -4.5t9.5 -20.5t-9.5 -20.5t-40.5 -4.5t-40.5 4.5t-9.5 20.5zM50 675q0 17 13 21t62 4t62 -4t13 -21t-13 -21t-62 -4t-62 4t-13 21z" />
    <glyph glyph-name="uni008E" 
d="M150 -125q0 9 2.5 13.5t17 7.5t36.5 3.5t69 0.5t69 -0.5t36.5 -3.5t17 -7.5t2.5 -13.5t-2.5 -13.5t-17 -7.5t-36.5 -3.5t-69 -0.5t-69 0.5t-36.5 3.5t-17 7.5t-2.5 13.5zM150 -25q0 16 9.5 20.5t40.5 4.5t40.5 -4.5t9.5 -20.5t-9.5 -20.5t-40.5 -4.5t-40.5 4.5t-9.5 20.5
zM150 75q0 17 16 21t84 4t84 -4t16 -21t-16 -21t-84 -4t-84 4t-16 21zM150 175q0 16 9.5 20.5t40.5 4.5t40.5 -4.5t9.5 -20.5t-9.5 -20.5t-40.5 -4.5t-40.5 4.5t-9.5 20.5zM50 275q0 15 15 19q22 6 160 6q151 0 167 -9q8 -4 8 -16q0 -15 -15 -19q-22 -6 -160 -6
q-151 0 -167 9q-8 4 -8 16zM150 375q0 16 9.5 20.5t40.5 4.5t40.5 -4.5t9.5 -20.5t-9.5 -20.5t-40.5 -4.5t-40.5 4.5t-9.5 20.5zM0 375q0 16 9.5 20.5t40.5 4.5t40.5 -4.5t9.5 -20.5t-9.5 -20.5t-40.5 -4.5t-40.5 4.5t-9.5 20.5zM50 475q0 17 13 21t62 4t62 -4t13 -21
t-13 -21t-62 -4t-62 4t-13 21zM150 575q0 16 9.5 20.5t40.5 4.5t40.5 -4.5t9.5 -20.5t-9.5 -20.5t-40.5 -4.5t-40.5 4.5t-9.5 20.5zM0 575q0 16 9.5 20.5t40.5 4.5t40.5 -4.5t9.5 -20.5t-9.5 -20.5t-40.5 -4.5t-40.5 4.5t-9.5 20.5zM50 675q0 17 13 21t62 4t62 -4t13 -21
t-13 -21t-62 -4t-62 4t-13 21z" />
    <glyph glyph-name="uni008F" 
d="M150 -125q0 16 9.5 20.5t40.5 4.5t40.5 -4.5t9.5 -20.5t-9.5 -20.5t-40.5 -4.5t-40.5 4.5t-9.5 20.5zM150 -25q0 16 9.5 20.5t40.5 4.5t40.5 -4.5t9.5 -20.5t-9.5 -20.5t-40.5 -4.5t-40.5 4.5t-9.5 20.5zM150 75q0 17 16 21t84 4t84 -4t16 -21t-16 -21t-84 -4t-84 4
t-16 21zM150 175q0 16 9.5 20.5t40.5 4.5t40.5 -4.5t9.5 -20.5t-9.5 -20.5t-40.5 -4.5t-40.5 4.5t-9.5 20.5zM50 275q0 15 15 19q22 6 160 6q151 0 167 -9q8 -4 8 -16q0 -15 -15 -19q-22 -6 -160 -6q-151 0 -167 9q-8 4 -8 16zM150 375q0 16 9.5 20.5t40.5 4.5t40.5 -4.5
t9.5 -20.5t-9.5 -20.5t-40.5 -4.5t-40.5 4.5t-9.5 20.5zM0 375q0 16 9.5 20.5t40.5 4.5t40.5 -4.5t9.5 -20.5t-9.5 -20.5t-40.5 -4.5t-40.5 4.5t-9.5 20.5zM50 475q0 17 13 21t62 4t62 -4t13 -21t-13 -21t-62 -4t-62 4t-13 21zM150 575q0 16 9.5 20.5t40.5 4.5t40.5 -4.5
t9.5 -20.5t-9.5 -20.5t-40.5 -4.5t-40.5 4.5t-9.5 20.5zM0 575q0 16 9.5 20.5t40.5 4.5t40.5 -4.5t9.5 -20.5t-9.5 -20.5t-40.5 -4.5t-40.5 4.5t-9.5 20.5zM50 675q0 17 13 21t62 4t62 -4t13 -21t-13 -21t-62 -4t-62 4t-13 21z" />
    <glyph glyph-name="uni0090" 
d="M200 -125q0 17 13 21t62 4t62 -4t13 -21t-13 -21t-62 -4t-62 4t-13 21zM300 -25q0 16 9.5 20.5t40.5 4.5t40.5 -4.5t9.5 -20.5t-9.5 -20.5t-40.5 -4.5t-40.5 4.5t-9.5 20.5zM150 -25q0 16 9.5 20.5t40.5 4.5t40.5 -4.5t9.5 -20.5t-9.5 -20.5t-40.5 -4.5t-40.5 4.5
t-9.5 20.5zM300 75q0 16 9.5 20.5t40.5 4.5t40.5 -4.5t9.5 -20.5t-9.5 -20.5t-40.5 -4.5t-40.5 4.5t-9.5 20.5zM150 75q0 16 9.5 20.5t40.5 4.5t40.5 -4.5t9.5 -20.5t-9.5 -20.5t-40.5 -4.5t-40.5 4.5t-9.5 20.5zM300 175q0 16 9.5 20.5t40.5 4.5t40.5 -4.5t9.5 -20.5
t-9.5 -20.5t-40.5 -4.5t-40.5 4.5t-9.5 20.5zM150 175q0 16 9.5 20.5t40.5 4.5t40.5 -4.5t9.5 -20.5t-9.5 -20.5t-40.5 -4.5t-40.5 4.5t-9.5 20.5zM200 275q0 17 13 21t62 4t62 -4t13 -21t-13 -21t-62 -4t-62 4t-13 21zM0 275q0 17 13 21t62 4t62 -4t13 -21t-13 -21t-62 -4
t-62 4t-13 21zM100 375q0 16 9.5 20.5t40.5 4.5t40.5 -4.5t9.5 -20.5t-9.5 -20.5t-40.5 -4.5t-40.5 4.5t-9.5 20.5zM50 475q0 17 16 21t84 4t84 -4t16 -21t-16 -21t-84 -4t-84 4t-16 21zM150 575q0 16 9.5 20.5t40.5 4.5t40.5 -4.5t9.5 -20.5t-9.5 -20.5t-40.5 -4.5
t-40.5 4.5t-9.5 20.5zM0 575q0 16 9.5 20.5t40.5 4.5t40.5 -4.5t9.5 -20.5t-9.5 -20.5t-40.5 -4.5t-40.5 4.5t-9.5 20.5zM50 675q0 17 13 21t62 4t62 -4t13 -21t-13 -21t-62 -4t-62 4t-13 21z" />
    <glyph glyph-name="uni0091" 
d="M200 -125q0 17 16 21t84 4t84 -4t16 -21t-16 -21t-84 -4t-84 4t-16 21zM250 -25q0 16 9.5 20.5t40.5 4.5t40.5 -4.5t9.5 -20.5t-9.5 -20.5t-40.5 -4.5t-40.5 4.5t-9.5 20.5zM250 75q0 16 9.5 20.5t40.5 4.5t40.5 -4.5t9.5 -20.5t-9.5 -20.5t-40.5 -4.5t-40.5 4.5
t-9.5 20.5zM200 175q0 17 13 21t62 4t62 -4t13 -21t-13 -21t-62 -4t-62 4t-13 21zM250 275q0 16 9.5 20.5t40.5 4.5t40.5 -4.5t9.5 -20.5t-9.5 -20.5t-40.5 -4.5t-40.5 4.5t-9.5 20.5zM0 275q0 17 13 21t62 4t62 -4t13 -21t-13 -21t-62 -4t-62 4t-13 21zM100 375
q0 16 9.5 20.5t40.5 4.5t40.5 -4.5t9.5 -20.5t-9.5 -20.5t-40.5 -4.5t-40.5 4.5t-9.5 20.5zM50 475q0 17 16 21t84 4t84 -4t16 -21t-16 -21t-84 -4t-84 4t-16 21zM150 575q0 16 9.5 20.5t40.5 4.5t40.5 -4.5t9.5 -20.5t-9.5 -20.5t-40.5 -4.5t-40.5 4.5t-9.5 20.5zM0 575
q0 16 9.5 20.5t40.5 4.5t40.5 -4.5t9.5 -20.5t-9.5 -20.5t-40.5 -4.5t-40.5 4.5t-9.5 20.5zM50 675q0 17 13 21t62 4t62 -4t13 -21t-13 -21t-62 -4t-62 4t-13 21z" />
    <glyph glyph-name="uni0092" 
d="M150 -125q0 9 2.5 13.5t17 7.5t36.5 3.5t69 0.5t69 -0.5t36.5 -3.5t17 -7.5t2.5 -13.5t-2.5 -13.5t-17 -7.5t-36.5 -3.5t-69 -0.5t-69 0.5t-36.5 3.5t-17 7.5t-2.5 13.5zM200 -25q0 16 9.5 20.5t40.5 4.5t40.5 -4.5t9.5 -20.5t-9.5 -20.5t-40.5 -4.5t-40.5 4.5t-9.5 20.5
zM250 75q0 16 9.5 20.5t40.5 4.5t40.5 -4.5t9.5 -20.5t-9.5 -20.5t-40.5 -4.5t-40.5 4.5t-9.5 20.5zM300 175q0 16 9.5 20.5t40.5 4.5t40.5 -4.5t9.5 -20.5t-9.5 -20.5t-40.5 -4.5t-40.5 4.5t-9.5 20.5zM150 175q0 16 9.5 20.5t40.5 4.5t40.5 -4.5t9.5 -20.5t-9.5 -20.5
t-40.5 -4.5t-40.5 4.5t-9.5 20.5zM200 275q0 17 13 21t62 4t62 -4t13 -21t-13 -21t-62 -4t-62 4t-13 21zM0 275q0 17 13 21t62 4t62 -4t13 -21t-13 -21t-62 -4t-62 4t-13 21zM100 375q0 16 9.5 20.5t40.5 4.5t40.5 -4.5t9.5 -20.5t-9.5 -20.5t-40.5 -4.5t-40.5 4.5
t-9.5 20.5zM50 475q0 17 16 21t84 4t84 -4t16 -21t-16 -21t-84 -4t-84 4t-16 21zM150 575q0 16 9.5 20.5t40.5 4.5t40.5 -4.5t9.5 -20.5t-9.5 -20.5t-40.5 -4.5t-40.5 4.5t-9.5 20.5zM0 575q0 16 9.5 20.5t40.5 4.5t40.5 -4.5t9.5 -20.5t-9.5 -20.5t-40.5 -4.5t-40.5 4.5
t-9.5 20.5zM50 675q0 17 13 21t62 4t62 -4t13 -21t-13 -21t-62 -4t-62 4t-13 21z" />
    <glyph glyph-name="uni0093" 
d="M150 -125q0 17 16 21t84 4t84 -4t16 -21t-16 -21t-84 -4t-84 4t-16 21zM300 -25q0 16 9.5 20.5t40.5 4.5t40.5 -4.5t9.5 -20.5t-9.5 -20.5t-40.5 -4.5t-40.5 4.5t-9.5 20.5zM200 75q0 17 13 21t62 4t62 -4t13 -21t-13 -21t-62 -4t-62 4t-13 21zM300 175q0 16 9.5 20.5
t40.5 4.5t40.5 -4.5t9.5 -20.5t-9.5 -20.5t-40.5 -4.5t-40.5 4.5t-9.5 20.5zM0 275q0 15 15 19q24 6 185 6q173 0 191 -9q9 -4 9 -16q0 -15 -15 -19q-24 -6 -185 -6q-173 0 -191 9q-9 4 -9 16zM100 375q0 16 9.5 20.5t40.5 4.5t40.5 -4.5t9.5 -20.5t-9.5 -20.5t-40.5 -4.5
t-40.5 4.5t-9.5 20.5zM50 475q0 17 16 21t84 4t84 -4t16 -21t-16 -21t-84 -4t-84 4t-16 21zM150 575q0 16 9.5 20.5t40.5 4.5t40.5 -4.5t9.5 -20.5t-9.5 -20.5t-40.5 -4.5t-40.5 4.5t-9.5 20.5zM0 575q0 16 9.5 20.5t40.5 4.5t40.5 -4.5t9.5 -20.5t-9.5 -20.5t-40.5 -4.5
t-40.5 4.5t-9.5 20.5zM50 675q0 17 13 21t62 4t62 -4t13 -21t-13 -21t-62 -4t-62 4t-13 21z" />
    <glyph glyph-name="uni0094" 
d="M250 -125q0 16 9.5 20.5t40.5 4.5t40.5 -4.5t9.5 -20.5t-9.5 -20.5t-40.5 -4.5t-40.5 4.5t-9.5 20.5zM100 -25q0 16 15 20q19 5 135 5q129 0 143 -9q7 -4 7 -16q0 -16 -15 -20q-19 -5 -135 -5q-129 0 -143 9q-7 4 -7 16zM150 75q0 17 16 21t84 4t84 -4t16 -21t-16 -21
t-84 -4t-84 4t-16 21zM200 175q0 17 13 21t62 4t62 -4t13 -21t-13 -21t-62 -4t-62 4t-13 21zM250 275q0 16 9.5 20.5t40.5 4.5t40.5 -4.5t9.5 -20.5t-9.5 -20.5t-40.5 -4.5t-40.5 4.5t-9.5 20.5zM0 275q0 17 13 21t62 4t62 -4t13 -21t-13 -21t-62 -4t-62 4t-13 21zM100 375
q0 16 9.5 20.5t40.5 4.5t40.5 -4.5t9.5 -20.5t-9.5 -20.5t-40.5 -4.5t-40.5 4.5t-9.5 20.5zM50 475q0 17 16 21t84 4t84 -4t16 -21t-16 -21t-84 -4t-84 4t-16 21zM150 575q0 16 9.5 20.5t40.5 4.5t40.5 -4.5t9.5 -20.5t-9.5 -20.5t-40.5 -4.5t-40.5 4.5t-9.5 20.5zM0 575
q0 16 9.5 20.5t40.5 4.5t40.5 -4.5t9.5 -20.5t-9.5 -20.5t-40.5 -4.5t-40.5 4.5t-9.5 20.5zM50 675q0 17 13 21t62 4t62 -4t13 -21t-13 -21t-62 -4t-62 4t-13 21z" />
    <glyph glyph-name="uni0095" 
d="M150 -125q0 17 16 21t84 4t84 -4t16 -21t-16 -21t-84 -4t-84 4t-16 21zM300 -25q0 16 9.5 20.5t40.5 4.5t40.5 -4.5t9.5 -20.5t-9.5 -20.5t-40.5 -4.5t-40.5 4.5t-9.5 20.5zM150 75q0 17 16 21t84 4t84 -4t16 -21t-16 -21t-84 -4t-84 4t-16 21zM150 175q0 16 9.5 20.5
t40.5 4.5t40.5 -4.5t9.5 -20.5t-9.5 -20.5t-40.5 -4.5t-40.5 4.5t-9.5 20.5zM0 275q0 15 15 19q24 6 185 6q173 0 191 -9q9 -4 9 -16q0 -15 -15 -19q-24 -6 -185 -6q-173 0 -191 9q-9 4 -9 16zM100 375q0 16 9.5 20.5t40.5 4.5t40.5 -4.5t9.5 -20.5t-9.5 -20.5t-40.5 -4.5
t-40.5 4.5t-9.5 20.5zM50 475q0 17 16 21t84 4t84 -4t16 -21t-16 -21t-84 -4t-84 4t-16 21zM150 575q0 16 9.5 20.5t40.5 4.5t40.5 -4.5t9.5 -20.5t-9.5 -20.5t-40.5 -4.5t-40.5 4.5t-9.5 20.5zM0 575q0 16 9.5 20.5t40.5 4.5t40.5 -4.5t9.5 -20.5t-9.5 -20.5t-40.5 -4.5
t-40.5 4.5t-9.5 20.5zM50 675q0 17 13 21t62 4t62 -4t13 -21t-13 -21t-62 -4t-62 4t-13 21z" />
    <glyph glyph-name="uni0096" 
d="M200 -125q0 17 13 21t62 4t62 -4t13 -21t-13 -21t-62 -4t-62 4t-13 21zM300 -25q0 16 9.5 20.5t40.5 4.5t40.5 -4.5t9.5 -20.5t-9.5 -20.5t-40.5 -4.5t-40.5 4.5t-9.5 20.5zM150 -25q0 16 9.5 20.5t40.5 4.5t40.5 -4.5t9.5 -20.5t-9.5 -20.5t-40.5 -4.5t-40.5 4.5
t-9.5 20.5zM150 75q0 17 16 21t84 4t84 -4t16 -21t-16 -21t-84 -4t-84 4t-16 21zM200 175q0 16 9.5 20.5t40.5 4.5t40.5 -4.5t9.5 -20.5t-9.5 -20.5t-40.5 -4.5t-40.5 4.5t-9.5 20.5zM250 275q0 17 13 21t62 4q50 0 62.5 -4t12.5 -21t-12.5 -21t-62.5 -4q-49 0 -62 4t-13 21
zM0 275q0 17 13 21t62 4t62 -4t13 -21t-13 -21t-62 -4t-62 4t-13 21zM100 375q0 16 9.5 20.5t40.5 4.5t40.5 -4.5t9.5 -20.5t-9.5 -20.5t-40.5 -4.5t-40.5 4.5t-9.5 20.5zM50 475q0 17 16 21t84 4t84 -4t16 -21t-16 -21t-84 -4t-84 4t-16 21zM150 575q0 16 9.5 20.5
t40.5 4.5t40.5 -4.5t9.5 -20.5t-9.5 -20.5t-40.5 -4.5t-40.5 4.5t-9.5 20.5zM0 575q0 16 9.5 20.5t40.5 4.5t40.5 -4.5t9.5 -20.5t-9.5 -20.5t-40.5 -4.5t-40.5 4.5t-9.5 20.5zM50 675q0 17 13 21t62 4t62 -4t13 -21t-13 -21t-62 -4t-62 4t-13 21z" />
    <glyph glyph-name="uni0097" 
d="M200 -125q0 16 9.5 20.5t40.5 4.5t40.5 -4.5t9.5 -20.5t-9.5 -20.5t-40.5 -4.5t-40.5 4.5t-9.5 20.5zM200 -25q0 16 9.5 20.5t40.5 4.5t40.5 -4.5t9.5 -20.5t-9.5 -20.5t-40.5 -4.5t-40.5 4.5t-9.5 20.5zM250 75q0 16 9.5 20.5t40.5 4.5t40.5 -4.5t9.5 -20.5t-9.5 -20.5
t-40.5 -4.5t-40.5 4.5t-9.5 20.5zM300 175q0 16 9.5 20.5t40.5 4.5t40.5 -4.5t9.5 -20.5t-9.5 -20.5t-40.5 -4.5t-40.5 4.5t-9.5 20.5zM0 275q0 15 15 19q24 6 185 6q173 0 191 -9q9 -4 9 -16q0 -15 -15 -19q-24 -6 -185 -6q-173 0 -191 9q-9 4 -9 16zM100 375
q0 16 9.5 20.5t40.5 4.5t40.5 -4.5t9.5 -20.5t-9.5 -20.5t-40.5 -4.5t-40.5 4.5t-9.5 20.5zM50 475q0 17 16 21t84 4t84 -4t16 -21t-16 -21t-84 -4t-84 4t-16 21zM150 575q0 16 9.5 20.5t40.5 4.5t40.5 -4.5t9.5 -20.5t-9.5 -20.5t-40.5 -4.5t-40.5 4.5t-9.5 20.5zM0 575
q0 16 9.5 20.5t40.5 4.5t40.5 -4.5t9.5 -20.5t-9.5 -20.5t-40.5 -4.5t-40.5 4.5t-9.5 20.5zM50 675q0 17 13 21t62 4t62 -4t13 -21t-13 -21t-62 -4t-62 4t-13 21z" />
    <glyph glyph-name="uni0098" 
d="M200 -125q0 17 13 21t62 4t62 -4t13 -21t-13 -21t-62 -4t-62 4t-13 21zM300 -25q0 16 9.5 20.5t40.5 4.5t40.5 -4.5t9.5 -20.5t-9.5 -20.5t-40.5 -4.5t-40.5 4.5t-9.5 20.5zM150 -25q0 16 9.5 20.5t40.5 4.5t40.5 -4.5t9.5 -20.5t-9.5 -20.5t-40.5 -4.5t-40.5 4.5
t-9.5 20.5zM200 75q0 17 13 21t62 4t62 -4t13 -21t-13 -21t-62 -4t-62 4t-13 21zM300 175q0 16 9.5 20.5t40.5 4.5t40.5 -4.5t9.5 -20.5t-9.5 -20.5t-40.5 -4.5t-40.5 4.5t-9.5 20.5zM150 175q0 16 9.5 20.5t40.5 4.5t40.5 -4.5t9.5 -20.5t-9.5 -20.5t-40.5 -4.5t-40.5 4.5
t-9.5 20.5zM200 275q0 17 13 21t62 4t62 -4t13 -21t-13 -21t-62 -4t-62 4t-13 21zM0 275q0 17 13 21t62 4t62 -4t13 -21t-13 -21t-62 -4t-62 4t-13 21zM100 375q0 16 9.5 20.5t40.5 4.5t40.5 -4.5t9.5 -20.5t-9.5 -20.5t-40.5 -4.5t-40.5 4.5t-9.5 20.5zM50 475q0 17 16 21
t84 4t84 -4t16 -21t-16 -21t-84 -4t-84 4t-16 21zM150 575q0 16 9.5 20.5t40.5 4.5t40.5 -4.5t9.5 -20.5t-9.5 -20.5t-40.5 -4.5t-40.5 4.5t-9.5 20.5zM0 575q0 16 9.5 20.5t40.5 4.5t40.5 -4.5t9.5 -20.5t-9.5 -20.5t-40.5 -4.5t-40.5 4.5t-9.5 20.5zM50 675q0 17 13 21
t62 4t62 -4t13 -21t-13 -21t-62 -4t-62 4t-13 21z" />
    <glyph glyph-name="uni0099" 
d="M150 -125q0 17 13 21t62 4t62 -4t13 -21t-13 -21t-62 -4t-62 4t-13 21zM250 -25q0 16 9.5 20.5t40.5 4.5t40.5 -4.5t9.5 -20.5t-9.5 -20.5t-40.5 -4.5t-40.5 4.5t-9.5 20.5zM200 75q0 17 16 21t84 4t84 -4t16 -21t-16 -21t-84 -4t-84 4t-16 21zM300 175q0 16 9.5 20.5
t40.5 4.5t40.5 -4.5t9.5 -20.5t-9.5 -20.5t-40.5 -4.5t-40.5 4.5t-9.5 20.5zM150 175q0 16 9.5 20.5t40.5 4.5t40.5 -4.5t9.5 -20.5t-9.5 -20.5t-40.5 -4.5t-40.5 4.5t-9.5 20.5zM200 275q0 17 13 21t62 4t62 -4t13 -21t-13 -21t-62 -4t-62 4t-13 21zM0 275q0 17 13 21t62 4
t62 -4t13 -21t-13 -21t-62 -4t-62 4t-13 21zM100 375q0 16 9.5 20.5t40.5 4.5t40.5 -4.5t9.5 -20.5t-9.5 -20.5t-40.5 -4.5t-40.5 4.5t-9.5 20.5zM50 475q0 17 16 21t84 4t84 -4t16 -21t-16 -21t-84 -4t-84 4t-16 21zM150 575q0 16 9.5 20.5t40.5 4.5t40.5 -4.5t9.5 -20.5
t-9.5 -20.5t-40.5 -4.5t-40.5 4.5t-9.5 20.5zM0 575q0 16 9.5 20.5t40.5 4.5t40.5 -4.5t9.5 -20.5t-9.5 -20.5t-40.5 -4.5t-40.5 4.5t-9.5 20.5zM50 675q0 17 13 21t62 4t62 -4t13 -21t-13 -21t-62 -4t-62 4t-13 21z" />
    <glyph glyph-name="uni009A" 
d="M300 -125q0 16 9.5 20.5t40.5 4.5t40.5 -4.5t9.5 -20.5t-9.5 -20.5t-40.5 -4.5t-40.5 4.5t-9.5 20.5zM150 -125q0 16 9.5 20.5t40.5 4.5t40.5 -4.5t9.5 -20.5t-9.5 -20.5t-40.5 -4.5t-40.5 4.5t-9.5 20.5zM300 -25q0 16 9.5 20.5t40.5 4.5t40.5 -4.5t9.5 -20.5
t-9.5 -20.5t-40.5 -4.5t-40.5 4.5t-9.5 20.5zM150 -25q0 16 9.5 20.5t40.5 4.5t40.5 -4.5t9.5 -20.5t-9.5 -20.5t-40.5 -4.5t-40.5 4.5t-9.5 20.5zM150 75q0 9 2.5 13.5t17 7.5t36.5 3.5t69 0.5t69 -0.5t36.5 -3.5t17 -7.5t2.5 -13.5t-2.5 -13.5t-17 -7.5t-36.5 -3.5
t-69 -0.5t-69 0.5t-36.5 3.5t-17 7.5t-2.5 13.5zM300 175q0 16 9.5 20.5t40.5 4.5t40.5 -4.5t9.5 -20.5t-9.5 -20.5t-40.5 -4.5t-40.5 4.5t-9.5 20.5zM150 175q0 16 9.5 20.5t40.5 4.5t40.5 -4.5t9.5 -20.5t-9.5 -20.5t-40.5 -4.5t-40.5 4.5t-9.5 20.5zM200 275q0 17 13 21
t62 4t62 -4t13 -21t-13 -21t-62 -4t-62 4t-13 21zM0 275q0 17 13 21t62 4t62 -4t13 -21t-13 -21t-62 -4t-62 4t-13 21zM100 375q0 16 9.5 20.5t40.5 4.5t40.5 -4.5t9.5 -20.5t-9.5 -20.5t-40.5 -4.5t-40.5 4.5t-9.5 20.5zM50 475q0 17 16 21t84 4t84 -4t16 -21t-16 -21
t-84 -4t-84 4t-16 21zM150 575q0 16 9.5 20.5t40.5 4.5t40.5 -4.5t9.5 -20.5t-9.5 -20.5t-40.5 -4.5t-40.5 4.5t-9.5 20.5zM0 575q0 16 9.5 20.5t40.5 4.5t40.5 -4.5t9.5 -20.5t-9.5 -20.5t-40.5 -4.5t-40.5 4.5t-9.5 20.5zM50 675q0 17 13 21t62 4t62 -4t13 -21t-13 -21
t-62 -4t-62 4t-13 21z" />
    <glyph glyph-name="uni009B" 
d="M150 -125q0 17 16 21t84 4t84 -4t16 -21t-16 -21t-84 -4t-84 4t-16 21zM300 -25q0 16 9.5 20.5t40.5 4.5t40.5 -4.5t9.5 -20.5t-9.5 -20.5t-40.5 -4.5t-40.5 4.5t-9.5 20.5zM150 -25q0 16 9.5 20.5t40.5 4.5t40.5 -4.5t9.5 -20.5t-9.5 -20.5t-40.5 -4.5t-40.5 4.5
t-9.5 20.5zM150 75q0 17 16 21t84 4t84 -4t16 -21t-16 -21t-84 -4t-84 4t-16 21zM300 175q0 16 9.5 20.5t40.5 4.5t40.5 -4.5t9.5 -20.5t-9.5 -20.5t-40.5 -4.5t-40.5 4.5t-9.5 20.5zM150 175q0 16 9.5 20.5t40.5 4.5t40.5 -4.5t9.5 -20.5t-9.5 -20.5t-40.5 -4.5t-40.5 4.5
t-9.5 20.5zM0 275q0 15 15 19q22 6 160 6q151 0 167 -9q8 -4 8 -16q0 -15 -15 -19q-22 -6 -160 -6q-151 0 -167 9q-8 4 -8 16zM100 375q0 16 9.5 20.5t40.5 4.5t40.5 -4.5t9.5 -20.5t-9.5 -20.5t-40.5 -4.5t-40.5 4.5t-9.5 20.5zM50 475q0 17 16 21t84 4t84 -4t16 -21
t-16 -21t-84 -4t-84 4t-16 21zM150 575q0 16 9.5 20.5t40.5 4.5t40.5 -4.5t9.5 -20.5t-9.5 -20.5t-40.5 -4.5t-40.5 4.5t-9.5 20.5zM0 575q0 16 9.5 20.5t40.5 4.5t40.5 -4.5t9.5 -20.5t-9.5 -20.5t-40.5 -4.5t-40.5 4.5t-9.5 20.5zM50 675q0 17 13 21t62 4t62 -4t13 -21
t-13 -21t-62 -4t-62 4t-13 21z" />
    <glyph glyph-name="uni009C" 
d="M200 -125q0 17 16 21t84 4t84 -4t16 -21t-16 -21t-84 -4t-84 4t-16 21zM150 -25q0 16 9.5 20.5t40.5 4.5t40.5 -4.5t9.5 -20.5t-9.5 -20.5t-40.5 -4.5t-40.5 4.5t-9.5 20.5zM150 75q0 16 9.5 20.5t40.5 4.5t40.5 -4.5t9.5 -20.5t-9.5 -20.5t-40.5 -4.5t-40.5 4.5
t-9.5 20.5zM150 175q0 16 9.5 20.5t40.5 4.5t40.5 -4.5t9.5 -20.5t-9.5 -20.5t-40.5 -4.5t-40.5 4.5t-9.5 20.5zM200 275q0 17 16 21t84 4t84 -4t16 -21t-16 -21t-84 -4t-84 4t-16 21zM0 275q0 17 13 21t62 4t62 -4t13 -21t-13 -21t-62 -4t-62 4t-13 21zM100 375
q0 16 9.5 20.5t40.5 4.5t40.5 -4.5t9.5 -20.5t-9.5 -20.5t-40.5 -4.5t-40.5 4.5t-9.5 20.5zM50 475q0 17 16 21t84 4t84 -4t16 -21t-16 -21t-84 -4t-84 4t-16 21zM150 575q0 16 9.5 20.5t40.5 4.5t40.5 -4.5t9.5 -20.5t-9.5 -20.5t-40.5 -4.5t-40.5 4.5t-9.5 20.5zM0 575
q0 16 9.5 20.5t40.5 4.5t40.5 -4.5t9.5 -20.5t-9.5 -20.5t-40.5 -4.5t-40.5 4.5t-9.5 20.5zM50 675q0 17 13 21t62 4t62 -4t13 -21t-13 -21t-62 -4t-62 4t-13 21z" />
    <glyph glyph-name="uni009D" 
d="M150 -125q0 17 16 21t84 4t84 -4t16 -21t-16 -21t-84 -4t-84 4t-16 21zM300 -25q0 16 9.5 20.5t40.5 4.5t40.5 -4.5t9.5 -20.5t-9.5 -20.5t-40.5 -4.5t-40.5 4.5t-9.5 20.5zM150 -25q0 16 9.5 20.5t40.5 4.5t40.5 -4.5t9.5 -20.5t-9.5 -20.5t-40.5 -4.5t-40.5 4.5
t-9.5 20.5zM300 75q0 16 9.5 20.5t40.5 4.5t40.5 -4.5t9.5 -20.5t-9.5 -20.5t-40.5 -4.5t-40.5 4.5t-9.5 20.5zM150 75q0 16 9.5 20.5t40.5 4.5t40.5 -4.5t9.5 -20.5t-9.5 -20.5t-40.5 -4.5t-40.5 4.5t-9.5 20.5zM300 175q0 16 9.5 20.5t40.5 4.5t40.5 -4.5t9.5 -20.5
t-9.5 -20.5t-40.5 -4.5t-40.5 4.5t-9.5 20.5zM150 175q0 16 9.5 20.5t40.5 4.5t40.5 -4.5t9.5 -20.5t-9.5 -20.5t-40.5 -4.5t-40.5 4.5t-9.5 20.5zM0 275q0 15 15 19q22 6 160 6q151 0 167 -9q8 -4 8 -16q0 -15 -15 -19q-22 -6 -160 -6q-151 0 -167 9q-8 4 -8 16zM100 375
q0 16 9.5 20.5t40.5 4.5t40.5 -4.5t9.5 -20.5t-9.5 -20.5t-40.5 -4.5t-40.5 4.5t-9.5 20.5zM50 475q0 17 16 21t84 4t84 -4t16 -21t-16 -21t-84 -4t-84 4t-16 21zM150 575q0 16 9.5 20.5t40.5 4.5t40.5 -4.5t9.5 -20.5t-9.5 -20.5t-40.5 -4.5t-40.5 4.5t-9.5 20.5zM0 575
q0 16 9.5 20.5t40.5 4.5t40.5 -4.5t9.5 -20.5t-9.5 -20.5t-40.5 -4.5t-40.5 4.5t-9.5 20.5zM50 675q0 17 13 21t62 4t62 -4t13 -21t-13 -21t-62 -4t-62 4t-13 21z" />
    <glyph glyph-name="uni009E" 
d="M150 -125q0 9 2.5 13.5t17 7.5t36.5 3.5t69 0.5t69 -0.5t36.5 -3.5t17 -7.5t2.5 -13.5t-2.5 -13.5t-17 -7.5t-36.5 -3.5t-69 -0.5t-69 0.5t-36.5 3.5t-17 7.5t-2.5 13.5zM150 -25q0 16 9.5 20.5t40.5 4.5t40.5 -4.5t9.5 -20.5t-9.5 -20.5t-40.5 -4.5t-40.5 4.5t-9.5 20.5
zM150 75q0 17 16 21t84 4t84 -4t16 -21t-16 -21t-84 -4t-84 4t-16 21zM150 175q0 16 9.5 20.5t40.5 4.5t40.5 -4.5t9.5 -20.5t-9.5 -20.5t-40.5 -4.5t-40.5 4.5t-9.5 20.5zM0 275q0 15 15 19q24 6 185 6q173 0 191 -9q9 -4 9 -16q0 -15 -15 -19q-24 -6 -185 -6
q-173 0 -191 9q-9 4 -9 16zM100 375q0 16 9.5 20.5t40.5 4.5t40.5 -4.5t9.5 -20.5t-9.5 -20.5t-40.5 -4.5t-40.5 4.5t-9.5 20.5zM50 475q0 17 16 21t84 4t84 -4t16 -21t-16 -21t-84 -4t-84 4t-16 21zM150 575q0 16 9.5 20.5t40.5 4.5t40.5 -4.5t9.5 -20.5t-9.5 -20.5
t-40.5 -4.5t-40.5 4.5t-9.5 20.5zM0 575q0 16 9.5 20.5t40.5 4.5t40.5 -4.5t9.5 -20.5t-9.5 -20.5t-40.5 -4.5t-40.5 4.5t-9.5 20.5zM50 675q0 17 13 21t62 4t62 -4t13 -21t-13 -21t-62 -4t-62 4t-13 21z" />
    <glyph glyph-name="uni009F" 
d="M150 -125q0 16 9.5 20.5t40.5 4.5t40.5 -4.5t9.5 -20.5t-9.5 -20.5t-40.5 -4.5t-40.5 4.5t-9.5 20.5zM150 -25q0 16 9.5 20.5t40.5 4.5t40.5 -4.5t9.5 -20.5t-9.5 -20.5t-40.5 -4.5t-40.5 4.5t-9.5 20.5zM150 75q0 17 16 21t84 4t84 -4t16 -21t-16 -21t-84 -4t-84 4
t-16 21zM150 175q0 16 9.5 20.5t40.5 4.5t40.5 -4.5t9.5 -20.5t-9.5 -20.5t-40.5 -4.5t-40.5 4.5t-9.5 20.5zM0 275q0 15 15 19q24 6 185 6q173 0 191 -9q9 -4 9 -16q0 -15 -15 -19q-24 -6 -185 -6q-173 0 -191 9q-9 4 -9 16zM100 375q0 16 9.5 20.5t40.5 4.5t40.5 -4.5
t9.5 -20.5t-9.5 -20.5t-40.5 -4.5t-40.5 4.5t-9.5 20.5zM50 475q0 17 16 21t84 4t84 -4t16 -21t-16 -21t-84 -4t-84 4t-16 21zM150 575q0 16 9.5 20.5t40.5 4.5t40.5 -4.5t9.5 -20.5t-9.5 -20.5t-40.5 -4.5t-40.5 4.5t-9.5 20.5zM0 575q0 16 9.5 20.5t40.5 4.5t40.5 -4.5
t9.5 -20.5t-9.5 -20.5t-40.5 -4.5t-40.5 4.5t-9.5 20.5zM50 675q0 17 13 21t62 4t62 -4t13 -21t-13 -21t-62 -4t-62 4t-13 21z" />
    <glyph glyph-name="uni00A0" unicode="&#xa0;" 
d="M200 -125q0 17 13 21t62 4t62 -4t13 -21t-13 -21t-62 -4t-62 4t-13 21zM300 -25q0 16 9.5 20.5t40.5 4.5t40.5 -4.5t9.5 -20.5t-9.5 -20.5t-40.5 -4.5t-40.5 4.5t-9.5 20.5zM150 -25q0 16 9.5 20.5t40.5 4.5t40.5 -4.5t9.5 -20.5t-9.5 -20.5t-40.5 -4.5t-40.5 4.5
t-9.5 20.5zM300 75q0 16 9.5 20.5t40.5 4.5t40.5 -4.5t9.5 -20.5t-9.5 -20.5t-40.5 -4.5t-40.5 4.5t-9.5 20.5zM150 75q0 16 9.5 20.5t40.5 4.5t40.5 -4.5t9.5 -20.5t-9.5 -20.5t-40.5 -4.5t-40.5 4.5t-9.5 20.5zM300 175q0 16 9.5 20.5t40.5 4.5t40.5 -4.5t9.5 -20.5
t-9.5 -20.5t-40.5 -4.5t-40.5 4.5t-9.5 20.5zM150 175q0 16 9.5 20.5t40.5 4.5t40.5 -4.5t9.5 -20.5t-9.5 -20.5t-40.5 -4.5t-40.5 4.5t-9.5 20.5zM150 275q0 17 16 21t84 4t84 -4t16 -21t-16 -21t-84 -4t-84 4t-16 21zM0 275q0 16 9.5 20.5t40.5 4.5t40.5 -4.5t9.5 -20.5
t-9.5 -20.5t-40.5 -4.5t-40.5 4.5t-9.5 20.5zM150 375q0 16 9.5 20.5t40.5 4.5t40.5 -4.5t9.5 -20.5t-9.5 -20.5t-40.5 -4.5t-40.5 4.5t-9.5 20.5zM0 375q0 16 9.5 20.5t40.5 4.5t40.5 -4.5t9.5 -20.5t-9.5 -20.5t-40.5 -4.5t-40.5 4.5t-9.5 20.5zM0 475q0 9 2.5 13.5
t17 7.5t36.5 3.5t69 0.5t69 -0.5t36.5 -3.5t17 -7.5t2.5 -13.5t-2.5 -13.5t-17 -7.5t-36.5 -3.5t-69 -0.5t-69 0.5t-36.5 3.5t-17 7.5t-2.5 13.5zM150 575q0 16 9.5 20.5t40.5 4.5t40.5 -4.5t9.5 -20.5t-9.5 -20.5t-40.5 -4.5t-40.5 4.5t-9.5 20.5zM0 575q0 16 9.5 20.5
t40.5 4.5t40.5 -4.5t9.5 -20.5t-9.5 -20.5t-40.5 -4.5t-40.5 4.5t-9.5 20.5zM50 675q0 17 13 21t62 4t62 -4t13 -21t-13 -21t-62 -4t-62 4t-13 21z" />
    <glyph glyph-name="exclamdown" unicode="&#xa1;" 
d="M150 75q0 16 9.5 20.5t40.5 4.5t40.5 -4.5t9.5 -20.5t-9.5 -20.5t-40.5 -4.5t-40.5 4.5t-9.5 20.5zM150 175q0 16 9.5 20.5t40.5 4.5t40.5 -4.5t9.5 -20.5t-9.5 -20.5t-40.5 -4.5t-40.5 4.5t-9.5 20.5zM150 275q0 16 9.5 20.5t40.5 4.5t40.5 -4.5t9.5 -20.5t-9.5 -20.5
t-40.5 -4.5t-40.5 4.5t-9.5 20.5zM150 375q0 16 9.5 20.5t40.5 4.5t40.5 -4.5t9.5 -20.5t-9.5 -20.5t-40.5 -4.5t-40.5 4.5t-9.5 20.5zM150 475q0 16 9.5 20.5t40.5 4.5t40.5 -4.5t9.5 -20.5t-9.5 -20.5t-40.5 -4.5t-40.5 4.5t-9.5 20.5zM150 675q0 16 9.5 20.5t40.5 4.5
t40.5 -4.5t9.5 -20.5t-9.5 -20.5t-40.5 -4.5t-40.5 4.5t-9.5 20.5z" />
    <glyph glyph-name="cent" unicode="&#xa2;" 
d="M150 -25q0 16 9.5 20.5t40.5 4.5t40.5 -4.5t9.5 -20.5t-9.5 -20.5t-40.5 -4.5t-40.5 4.5t-9.5 20.5zM50 75q0 16 15 20q19 5 135 5q129 0 143 -9q7 -4 7 -16q0 -16 -15 -20q-19 -5 -135 -5q-129 0 -143 9q-7 4 -7 16zM300 175q0 16 9.5 20.5t40.5 4.5t40.5 -4.5
t9.5 -20.5t-9.5 -20.5t-40.5 -4.5t-40.5 4.5t-9.5 20.5zM150 175q0 16 9.5 20.5t40.5 4.5t40.5 -4.5t9.5 -20.5t-9.5 -20.5t-40.5 -4.5t-40.5 4.5t-9.5 20.5zM0 175q0 16 9.5 20.5t40.5 4.5t40.5 -4.5t9.5 -20.5t-9.5 -20.5t-40.5 -4.5t-40.5 4.5t-9.5 20.5zM150 275
q0 16 9.5 20.5t40.5 4.5t40.5 -4.5t9.5 -20.5t-9.5 -20.5t-40.5 -4.5t-40.5 4.5t-9.5 20.5zM0 275q0 16 9.5 20.5t40.5 4.5t40.5 -4.5t9.5 -20.5t-9.5 -20.5t-40.5 -4.5t-40.5 4.5t-9.5 20.5zM300 375q0 16 9.5 20.5t40.5 4.5t40.5 -4.5t9.5 -20.5t-9.5 -20.5t-40.5 -4.5
t-40.5 4.5t-9.5 20.5zM150 375q0 16 9.5 20.5t40.5 4.5t40.5 -4.5t9.5 -20.5t-9.5 -20.5t-40.5 -4.5t-40.5 4.5t-9.5 20.5zM0 375q0 16 9.5 20.5t40.5 4.5t40.5 -4.5t9.5 -20.5t-9.5 -20.5t-40.5 -4.5t-40.5 4.5t-9.5 20.5zM50 475q0 16 15 20q19 5 135 5q129 0 143 -9
q7 -4 7 -16q0 -16 -15 -20q-19 -5 -135 -5q-129 0 -143 9q-7 4 -7 16zM150 575q0 16 9.5 20.5t40.5 4.5t40.5 -4.5t9.5 -20.5t-9.5 -20.5t-40.5 -4.5t-40.5 4.5t-9.5 20.5z" />
    <glyph glyph-name="sterling" unicode="&#xa3;" 
d="M50 -25q0 16 9.5 20.5t40.5 4.5t40.5 -4.5t9.5 -20.5t-9.5 -20.5t-40.5 -4.5t-40.5 4.5t-9.5 20.5zM250 75q0 17 13 21t62 4q50 0 62.5 -4t12.5 -21t-12.5 -21t-62.5 -4q-49 0 -62 4t-13 21zM0 75q0 17 16 21t84 4t84 -4t16 -21t-16 -21t-84 -4t-84 4t-16 21zM50 175
q0 9 2.5 13.5t17 7.5t36.5 3.5t69 0.5t69 -0.5t36.5 -3.5t17 -7.5t2.5 -13.5t-2.5 -13.5t-17 -7.5t-36.5 -3.5t-69 -0.5t-69 0.5t-36.5 3.5t-17 7.5t-2.5 13.5zM100 275q0 16 9.5 20.5t40.5 4.5t40.5 -4.5t9.5 -20.5t-9.5 -20.5t-40.5 -4.5t-40.5 4.5t-9.5 20.5zM0 375
q0 16 15 20q19 5 135 5q129 0 143 -9q7 -4 7 -16q0 -16 -15 -20q-19 -5 -135 -5q-129 0 -143 9q-7 4 -7 16zM100 475q0 16 9.5 20.5t40.5 4.5t40.5 -4.5t9.5 -20.5t-9.5 -20.5t-40.5 -4.5t-40.5 4.5t-9.5 20.5zM300 575q0 16 9.5 20.5t40.5 4.5t40.5 -4.5t9.5 -20.5
t-9.5 -20.5t-40.5 -4.5t-40.5 4.5t-9.5 20.5zM100 575q0 16 9.5 20.5t40.5 4.5t40.5 -4.5t9.5 -20.5t-9.5 -20.5t-40.5 -4.5t-40.5 4.5t-9.5 20.5zM150 675q0 17 16 21t84 4t84 -4t16 -21t-16 -21t-84 -4t-84 4t-16 21z" />
    <glyph glyph-name="currency" unicode="&#xa4;" 
d="M250 -125q0 16 9.5 20.5t40.5 4.5t40.5 -4.5t9.5 -20.5t-9.5 -20.5t-40.5 -4.5t-40.5 4.5t-9.5 20.5zM100 -25q0 16 15 20q19 5 135 5q129 0 143 -9q7 -4 7 -16q0 -16 -15 -20q-19 -5 -135 -5q-129 0 -143 9q-7 4 -7 16zM150 75q0 17 16 21t84 4t84 -4t16 -21t-16 -21
t-84 -4t-84 4t-16 21zM200 175q0 17 13 21t62 4t62 -4t13 -21t-13 -21t-62 -4t-62 4t-13 21zM150 275q0 17 16 21t84 4t84 -4t16 -21t-16 -21t-84 -4t-84 4t-16 21zM0 275q0 16 9.5 20.5t40.5 4.5t40.5 -4.5t9.5 -20.5t-9.5 -20.5t-40.5 -4.5t-40.5 4.5t-9.5 20.5zM150 375
q0 16 9.5 20.5t40.5 4.5t40.5 -4.5t9.5 -20.5t-9.5 -20.5t-40.5 -4.5t-40.5 4.5t-9.5 20.5zM0 375q0 16 9.5 20.5t40.5 4.5t40.5 -4.5t9.5 -20.5t-9.5 -20.5t-40.5 -4.5t-40.5 4.5t-9.5 20.5zM0 475q0 9 2.5 13.5t17 7.5t36.5 3.5t69 0.5t69 -0.5t36.5 -3.5t17 -7.5
t2.5 -13.5t-2.5 -13.5t-17 -7.5t-36.5 -3.5t-69 -0.5t-69 0.5t-36.5 3.5t-17 7.5t-2.5 13.5zM150 575q0 16 9.5 20.5t40.5 4.5t40.5 -4.5t9.5 -20.5t-9.5 -20.5t-40.5 -4.5t-40.5 4.5t-9.5 20.5zM0 575q0 16 9.5 20.5t40.5 4.5t40.5 -4.5t9.5 -20.5t-9.5 -20.5t-40.5 -4.5
t-40.5 4.5t-9.5 20.5zM50 675q0 17 13 21t62 4t62 -4t13 -21t-13 -21t-62 -4t-62 4t-13 21z" />
    <glyph glyph-name="yen" unicode="&#xa5;" 
d="M150 75q0 16 9.5 20.5t40.5 4.5t40.5 -4.5t9.5 -20.5t-9.5 -20.5t-40.5 -4.5t-40.5 4.5t-9.5 20.5zM150 175q0 16 9.5 20.5t40.5 4.5t40.5 -4.5t9.5 -20.5t-9.5 -20.5t-40.5 -4.5t-40.5 4.5t-9.5 20.5zM0 275q0 15 15 19q24 6 185 6q173 0 191 -9q9 -4 9 -16
q0 -15 -15 -19q-24 -6 -185 -6q-173 0 -191 9q-9 4 -9 16zM150 375q0 16 9.5 20.5t40.5 4.5t40.5 -4.5t9.5 -20.5t-9.5 -20.5t-40.5 -4.5t-40.5 4.5t-9.5 20.5zM100 475q0 17 16 21t84 4t84 -4t16 -21t-16 -21t-84 -4t-84 4t-16 21zM250 575q0 16 9.5 20.5t40.5 4.5
t40.5 -4.5t9.5 -20.5t-9.5 -20.5t-40.5 -4.5t-40.5 4.5t-9.5 20.5zM50 575q0 16 9.5 20.5t40.5 4.5t40.5 -4.5t9.5 -20.5t-9.5 -20.5t-40.5 -4.5t-40.5 4.5t-9.5 20.5zM300 675q0 16 9.5 20.5t40.5 4.5t40.5 -4.5t9.5 -20.5t-9.5 -20.5t-40.5 -4.5t-40.5 4.5t-9.5 20.5z
M0 675q0 16 9.5 20.5t40.5 4.5t40.5 -4.5t9.5 -20.5t-9.5 -20.5t-40.5 -4.5t-40.5 4.5t-9.5 20.5z" />
    <glyph glyph-name="brokenbar" unicode="&#xa6;" 
d="M200 -125q0 17 13 21t62 4t62 -4t13 -21t-13 -21t-62 -4t-62 4t-13 21zM300 -25q0 16 9.5 20.5t40.5 4.5t40.5 -4.5t9.5 -20.5t-9.5 -20.5t-40.5 -4.5t-40.5 4.5t-9.5 20.5zM150 -25q0 16 9.5 20.5t40.5 4.5t40.5 -4.5t9.5 -20.5t-9.5 -20.5t-40.5 -4.5t-40.5 4.5
t-9.5 20.5zM150 75q0 17 16 21t84 4t84 -4t16 -21t-16 -21t-84 -4t-84 4t-16 21zM200 175q0 16 9.5 20.5t40.5 4.5t40.5 -4.5t9.5 -20.5t-9.5 -20.5t-40.5 -4.5t-40.5 4.5t-9.5 20.5zM150 275q0 9 2.5 13.5t17 7.5t36.5 3.5t69 0.5t69 -0.5t36.5 -3.5t17 -7.5t2.5 -13.5
t-2.5 -13.5t-17 -7.5t-36.5 -3.5t-69 -0.5t-69 0.5t-36.5 3.5t-17 7.5t-2.5 13.5zM0 275q0 16 9.5 20.5t40.5 4.5t40.5 -4.5t9.5 -20.5t-9.5 -20.5t-40.5 -4.5t-40.5 4.5t-9.5 20.5zM150 375q0 16 9.5 20.5t40.5 4.5t40.5 -4.5t9.5 -20.5t-9.5 -20.5t-40.5 -4.5t-40.5 4.5
t-9.5 20.5zM0 375q0 16 9.5 20.5t40.5 4.5t40.5 -4.5t9.5 -20.5t-9.5 -20.5t-40.5 -4.5t-40.5 4.5t-9.5 20.5zM0 475q0 9 2.5 13.5t17 7.5t36.5 3.5t69 0.5t69 -0.5t36.5 -3.5t17 -7.5t2.5 -13.5t-2.5 -13.5t-17 -7.5t-36.5 -3.5t-69 -0.5t-69 0.5t-36.5 3.5t-17 7.5
t-2.5 13.5zM150 575q0 16 9.5 20.5t40.5 4.5t40.5 -4.5t9.5 -20.5t-9.5 -20.5t-40.5 -4.5t-40.5 4.5t-9.5 20.5zM0 575q0 16 9.5 20.5t40.5 4.5t40.5 -4.5t9.5 -20.5t-9.5 -20.5t-40.5 -4.5t-40.5 4.5t-9.5 20.5zM50 675q0 17 13 21t62 4t62 -4t13 -21t-13 -21t-62 -4t-62 4
t-13 21z" />
    <glyph glyph-name="section" unicode="&#xa7;" 
d="M50 75q0 9 2.5 13.5t17 7.5t36.5 3.5t69 0.5t69 -0.5t36.5 -3.5t17 -7.5t2.5 -13.5t-2.5 -13.5t-17 -7.5t-36.5 -3.5t-69 -0.5t-69 0.5t-36.5 3.5t-17 7.5t-2.5 13.5zM250 175q0 16 9.5 20.5t40.5 4.5t40.5 -4.5t9.5 -20.5t-9.5 -20.5t-40.5 -4.5t-40.5 4.5t-9.5 20.5z
M100 275q0 17 16 21t84 4t84 -4t16 -21t-16 -21t-84 -4t-84 4t-16 21zM250 375q0 16 9.5 20.5t40.5 4.5t40.5 -4.5t9.5 -20.5t-9.5 -20.5t-40.5 -4.5t-40.5 4.5t-9.5 20.5zM50 375q0 16 9.5 20.5t40.5 4.5t40.5 -4.5t9.5 -20.5t-9.5 -20.5t-40.5 -4.5t-40.5 4.5t-9.5 20.5z
M100 475q0 17 16 21t84 4t84 -4t16 -21t-16 -21t-84 -4t-84 4t-16 21zM50 575q0 16 9.5 20.5t40.5 4.5t40.5 -4.5t9.5 -20.5t-9.5 -20.5t-40.5 -4.5t-40.5 4.5t-9.5 20.5zM100 675q0 9 2.5 13.5t17 7.5t36.5 3.5t69 0.5t69 -0.5t36.5 -3.5t17 -7.5t2.5 -13.5t-2.5 -13.5
t-17 -7.5t-36.5 -3.5t-69 -0.5t-69 0.5t-36.5 3.5t-17 7.5t-2.5 13.5z" />
    <glyph glyph-name="dieresis" unicode="&#xa8;" 
d="M300 175q0 16 9.5 20.5t40.5 4.5t40.5 -4.5t9.5 -20.5t-9.5 -20.5t-40.5 -4.5t-40.5 4.5t-9.5 20.5zM0 175q0 16 9.5 20.5t40.5 4.5t40.5 -4.5t9.5 -20.5t-9.5 -20.5t-40.5 -4.5t-40.5 4.5t-9.5 20.5zM50 275q0 16 15 20q19 5 135 5q129 0 143 -9q7 -4 7 -16
q0 -16 -15 -20q-19 -5 -135 -5q-129 0 -143 9q-7 4 -7 16zM250 375q0 16 9.5 20.5t40.5 4.5t40.5 -4.5t9.5 -20.5t-9.5 -20.5t-40.5 -4.5t-40.5 4.5t-9.5 20.5zM50 375q0 16 9.5 20.5t40.5 4.5t40.5 -4.5t9.5 -20.5t-9.5 -20.5t-40.5 -4.5t-40.5 4.5t-9.5 20.5zM50 475
q0 16 15 20q19 5 135 5q129 0 143 -9q7 -4 7 -16q0 -16 -15 -20q-19 -5 -135 -5q-129 0 -143 9q-7 4 -7 16zM300 575q0 16 9.5 20.5t40.5 4.5t40.5 -4.5t9.5 -20.5t-9.5 -20.5t-40.5 -4.5t-40.5 4.5t-9.5 20.5zM0 575q0 16 9.5 20.5t40.5 4.5t40.5 -4.5t9.5 -20.5
t-9.5 -20.5t-40.5 -4.5t-40.5 4.5t-9.5 20.5z" />
    <glyph glyph-name="copyright" unicode="&#xa9;" 
d="M100 -25q0 17 16 21t84 4t84 -4t16 -21t-16 -21t-84 -4t-84 4t-16 21zM250 75q0 16 9.5 20.5t40.5 4.5t40.5 -4.5t9.5 -20.5t-9.5 -20.5t-40.5 -4.5t-40.5 4.5t-9.5 20.5zM50 75q0 16 9.5 20.5t40.5 4.5t40.5 -4.5t9.5 -20.5t-9.5 -20.5t-40.5 -4.5t-40.5 4.5t-9.5 20.5z
M150 175q0 9 2.5 13.5t17 7.5t36.5 3.5t69 0.5t69 -0.5t36.5 -3.5t17 -7.5t2.5 -13.5t-2.5 -13.5t-17 -7.5t-36.5 -3.5t-69 -0.5t-69 0.5t-36.5 3.5t-17 7.5t-2.5 13.5zM0 175q0 16 9.5 20.5t40.5 4.5t40.5 -4.5t9.5 -20.5t-9.5 -20.5t-40.5 -4.5t-40.5 4.5t-9.5 20.5z
M300 275q0 16 9.5 20.5t40.5 4.5t40.5 -4.5t9.5 -20.5t-9.5 -20.5t-40.5 -4.5t-40.5 4.5t-9.5 20.5zM0 275q0 17 16 21t84 4t84 -4t16 -21t-16 -21t-84 -4t-84 4t-16 21zM300 375q0 16 9.5 20.5t40.5 4.5t40.5 -4.5t9.5 -20.5t-9.5 -20.5t-40.5 -4.5t-40.5 4.5t-9.5 20.5z
M0 375q0 17 16 21t84 4t84 -4t16 -21t-16 -21t-84 -4t-84 4t-16 21zM150 475q0 9 2.5 13.5t17 7.5t36.5 3.5t69 0.5t69 -0.5t36.5 -3.5t17 -7.5t2.5 -13.5t-2.5 -13.5t-17 -7.5t-36.5 -3.5t-69 -0.5t-69 0.5t-36.5 3.5t-17 7.5t-2.5 13.5zM0 475q0 16 9.5 20.5t40.5 4.5
t40.5 -4.5t9.5 -20.5t-9.5 -20.5t-40.5 -4.5t-40.5 4.5t-9.5 20.5zM250 575q0 16 9.5 20.5t40.5 4.5t40.5 -4.5t9.5 -20.5t-9.5 -20.5t-40.5 -4.5t-40.5 4.5t-9.5 20.5zM50 575q0 16 9.5 20.5t40.5 4.5t40.5 -4.5t9.5 -20.5t-9.5 -20.5t-40.5 -4.5t-40.5 4.5t-9.5 20.5z
M100 675q0 17 16 21t84 4t84 -4t16 -21t-16 -21t-84 -4t-84 4t-16 21z" />
    <glyph glyph-name="ordfeminine" unicode="&#xaa;" 
d="M0 75q0 15 15 19q24 6 185 6q173 0 191 -9q9 -4 9 -16q0 -15 -15 -19q-24 -6 -185 -6q-173 0 -191 9q-9 4 -9 16zM50 275q0 15 15 19q22 6 160 6q151 0 167 -9q8 -4 8 -16q0 -15 -15 -19q-22 -6 -160 -6q-151 0 -167 9q-8 4 -8 16zM250 375q0 17 13 21t62 4q50 0 62.5 -4
t12.5 -21t-12.5 -21t-62.5 -4q-49 0 -62 4t-13 21zM0 375q0 16 9.5 20.5t40.5 4.5t40.5 -4.5t9.5 -20.5t-9.5 -20.5t-40.5 -4.5t-40.5 4.5t-9.5 20.5zM50 475q0 15 15 19q22 6 160 6q151 0 167 -9q8 -4 8 -16q0 -15 -15 -19q-22 -6 -160 -6q-151 0 -167 9q-8 4 -8 16z
M300 575q0 16 9.5 20.5t40.5 4.5t40.5 -4.5t9.5 -20.5t-9.5 -20.5t-40.5 -4.5t-40.5 4.5t-9.5 20.5zM50 675q0 16 15 20q19 5 135 5q129 0 143 -9q7 -4 7 -16q0 -16 -15 -20q-19 -5 -135 -5q-129 0 -143 9q-7 4 -7 16z" />
    <glyph glyph-name="guillemotleft" unicode="&#xab;" 
d="M300 75q0 16 9.5 20.5t40.5 4.5t40.5 -4.5t9.5 -20.5t-9.5 -20.5t-40.5 -4.5t-40.5 4.5t-9.5 20.5zM150 75q0 16 9.5 20.5t40.5 4.5t40.5 -4.5t9.5 -20.5t-9.5 -20.5t-40.5 -4.5t-40.5 4.5t-9.5 20.5zM250 175q0 16 9.5 20.5t40.5 4.5t40.5 -4.5t9.5 -20.5t-9.5 -20.5
t-40.5 -4.5t-40.5 4.5t-9.5 20.5zM100 175q0 16 9.5 20.5t40.5 4.5t40.5 -4.5t9.5 -20.5t-9.5 -20.5t-40.5 -4.5t-40.5 4.5t-9.5 20.5zM200 275q0 16 9.5 20.5t40.5 4.5t40.5 -4.5t9.5 -20.5t-9.5 -20.5t-40.5 -4.5t-40.5 4.5t-9.5 20.5zM50 275q0 16 9.5 20.5t40.5 4.5
t40.5 -4.5t9.5 -20.5t-9.5 -20.5t-40.5 -4.5t-40.5 4.5t-9.5 20.5zM150 375q0 16 9.5 20.5t40.5 4.5t40.5 -4.5t9.5 -20.5t-9.5 -20.5t-40.5 -4.5t-40.5 4.5t-9.5 20.5zM0 375q0 16 9.5 20.5t40.5 4.5t40.5 -4.5t9.5 -20.5t-9.5 -20.5t-40.5 -4.5t-40.5 4.5t-9.5 20.5z
M200 475q0 16 9.5 20.5t40.5 4.5t40.5 -4.5t9.5 -20.5t-9.5 -20.5t-40.5 -4.5t-40.5 4.5t-9.5 20.5zM50 475q0 16 9.5 20.5t40.5 4.5t40.5 -4.5t9.5 -20.5t-9.5 -20.5t-40.5 -4.5t-40.5 4.5t-9.5 20.5zM250 575q0 16 9.5 20.5t40.5 4.5t40.5 -4.5t9.5 -20.5t-9.5 -20.5
t-40.5 -4.5t-40.5 4.5t-9.5 20.5zM100 575q0 16 9.5 20.5t40.5 4.5t40.5 -4.5t9.5 -20.5t-9.5 -20.5t-40.5 -4.5t-40.5 4.5t-9.5 20.5zM300 675q0 16 9.5 20.5t40.5 4.5t40.5 -4.5t9.5 -20.5t-9.5 -20.5t-40.5 -4.5t-40.5 4.5t-9.5 20.5zM150 675q0 16 9.5 20.5t40.5 4.5
t40.5 -4.5t9.5 -20.5t-9.5 -20.5t-40.5 -4.5t-40.5 4.5t-9.5 20.5z" />
    <glyph glyph-name="logicalnot" unicode="&#xac;" 
d="M200 -125q0 17 16 21t84 4t84 -4t16 -21t-16 -21t-84 -4t-84 4t-16 21zM150 -25q0 16 9.5 20.5t40.5 4.5t40.5 -4.5t9.5 -20.5t-9.5 -20.5t-40.5 -4.5t-40.5 4.5t-9.5 20.5zM150 75q0 16 9.5 20.5t40.5 4.5t40.5 -4.5t9.5 -20.5t-9.5 -20.5t-40.5 -4.5t-40.5 4.5
t-9.5 20.5zM150 175q0 16 9.5 20.5t40.5 4.5t40.5 -4.5t9.5 -20.5t-9.5 -20.5t-40.5 -4.5t-40.5 4.5t-9.5 20.5zM150 275q0 9 2.5 13.5t17 7.5t36.5 3.5t69 0.5t69 -0.5t36.5 -3.5t17 -7.5t2.5 -13.5t-2.5 -13.5t-17 -7.5t-36.5 -3.5t-69 -0.5t-69 0.5t-36.5 3.5t-17 7.5
t-2.5 13.5zM0 275q0 16 9.5 20.5t40.5 4.5t40.5 -4.5t9.5 -20.5t-9.5 -20.5t-40.5 -4.5t-40.5 4.5t-9.5 20.5zM150 375q0 16 9.5 20.5t40.5 4.5t40.5 -4.5t9.5 -20.5t-9.5 -20.5t-40.5 -4.5t-40.5 4.5t-9.5 20.5zM0 375q0 16 9.5 20.5t40.5 4.5t40.5 -4.5t9.5 -20.5
t-9.5 -20.5t-40.5 -4.5t-40.5 4.5t-9.5 20.5zM0 475q0 9 2.5 13.5t17 7.5t36.5 3.5t69 0.5t69 -0.5t36.5 -3.5t17 -7.5t2.5 -13.5t-2.5 -13.5t-17 -7.5t-36.5 -3.5t-69 -0.5t-69 0.5t-36.5 3.5t-17 7.5t-2.5 13.5zM150 575q0 16 9.5 20.5t40.5 4.5t40.5 -4.5t9.5 -20.5
t-9.5 -20.5t-40.5 -4.5t-40.5 4.5t-9.5 20.5zM0 575q0 16 9.5 20.5t40.5 4.5t40.5 -4.5t9.5 -20.5t-9.5 -20.5t-40.5 -4.5t-40.5 4.5t-9.5 20.5zM50 675q0 17 13 21t62 4t62 -4t13 -21t-13 -21t-62 -4t-62 4t-13 21z" />
    <glyph glyph-name="uni00AD" unicode="&#xad;" 
d="M150 -125q0 17 16 21t84 4t84 -4t16 -21t-16 -21t-84 -4t-84 4t-16 21zM300 -25q0 16 9.5 20.5t40.5 4.5t40.5 -4.5t9.5 -20.5t-9.5 -20.5t-40.5 -4.5t-40.5 4.5t-9.5 20.5zM150 -25q0 16 9.5 20.5t40.5 4.5t40.5 -4.5t9.5 -20.5t-9.5 -20.5t-40.5 -4.5t-40.5 4.5
t-9.5 20.5zM300 75q0 16 9.5 20.5t40.5 4.5t40.5 -4.5t9.5 -20.5t-9.5 -20.5t-40.5 -4.5t-40.5 4.5t-9.5 20.5zM150 75q0 16 9.5 20.5t40.5 4.5t40.5 -4.5t9.5 -20.5t-9.5 -20.5t-40.5 -4.5t-40.5 4.5t-9.5 20.5zM300 175q0 16 9.5 20.5t40.5 4.5t40.5 -4.5t9.5 -20.5
t-9.5 -20.5t-40.5 -4.5t-40.5 4.5t-9.5 20.5zM150 175q0 16 9.5 20.5t40.5 4.5t40.5 -4.5t9.5 -20.5t-9.5 -20.5t-40.5 -4.5t-40.5 4.5t-9.5 20.5zM150 275q0 17 16 21t84 4t84 -4t16 -21t-16 -21t-84 -4t-84 4t-16 21zM0 275q0 16 9.5 20.5t40.5 4.5t40.5 -4.5t9.5 -20.5
t-9.5 -20.5t-40.5 -4.5t-40.5 4.5t-9.5 20.5zM150 375q0 16 9.5 20.5t40.5 4.5t40.5 -4.5t9.5 -20.5t-9.5 -20.5t-40.5 -4.5t-40.5 4.5t-9.5 20.5zM0 375q0 16 9.5 20.5t40.5 4.5t40.5 -4.5t9.5 -20.5t-9.5 -20.5t-40.5 -4.5t-40.5 4.5t-9.5 20.5zM0 475q0 9 2.5 13.5
t17 7.5t36.5 3.5t69 0.5t69 -0.5t36.5 -3.5t17 -7.5t2.5 -13.5t-2.5 -13.5t-17 -7.5t-36.5 -3.5t-69 -0.5t-69 0.5t-36.5 3.5t-17 7.5t-2.5 13.5zM150 575q0 16 9.5 20.5t40.5 4.5t40.5 -4.5t9.5 -20.5t-9.5 -20.5t-40.5 -4.5t-40.5 4.5t-9.5 20.5zM0 575q0 16 9.5 20.5
t40.5 4.5t40.5 -4.5t9.5 -20.5t-9.5 -20.5t-40.5 -4.5t-40.5 4.5t-9.5 20.5zM50 675q0 17 13 21t62 4t62 -4t13 -21t-13 -21t-62 -4t-62 4t-13 21z" />
    <glyph glyph-name="registered" unicode="&#xae;" 
d="M150 -125q0 9 2.5 13.5t17 7.5t36.5 3.5t69 0.5t69 -0.5t36.5 -3.5t17 -7.5t2.5 -13.5t-2.5 -13.5t-17 -7.5t-36.5 -3.5t-69 -0.5t-69 0.5t-36.5 3.5t-17 7.5t-2.5 13.5zM150 -25q0 16 9.5 20.5t40.5 4.5t40.5 -4.5t9.5 -20.5t-9.5 -20.5t-40.5 -4.5t-40.5 4.5t-9.5 20.5
zM150 75q0 17 16 21t84 4t84 -4t16 -21t-16 -21t-84 -4t-84 4t-16 21zM150 175q0 16 9.5 20.5t40.5 4.5t40.5 -4.5t9.5 -20.5t-9.5 -20.5t-40.5 -4.5t-40.5 4.5t-9.5 20.5zM150 275q0 9 2.5 13.5t17 7.5t36.5 3.5t69 0.5t69 -0.5t36.5 -3.5t17 -7.5t2.5 -13.5t-2.5 -13.5
t-17 -7.5t-36.5 -3.5t-69 -0.5t-69 0.5t-36.5 3.5t-17 7.5t-2.5 13.5zM0 275q0 16 9.5 20.5t40.5 4.5t40.5 -4.5t9.5 -20.5t-9.5 -20.5t-40.5 -4.5t-40.5 4.5t-9.5 20.5zM150 375q0 16 9.5 20.5t40.5 4.5t40.5 -4.5t9.5 -20.5t-9.5 -20.5t-40.5 -4.5t-40.5 4.5t-9.5 20.5z
M0 375q0 16 9.5 20.5t40.5 4.5t40.5 -4.5t9.5 -20.5t-9.5 -20.5t-40.5 -4.5t-40.5 4.5t-9.5 20.5zM0 475q0 9 2.5 13.5t17 7.5t36.5 3.5t69 0.5t69 -0.5t36.5 -3.5t17 -7.5t2.5 -13.5t-2.5 -13.5t-17 -7.5t-36.5 -3.5t-69 -0.5t-69 0.5t-36.5 3.5t-17 7.5t-2.5 13.5z
M150 575q0 16 9.5 20.5t40.5 4.5t40.5 -4.5t9.5 -20.5t-9.5 -20.5t-40.5 -4.5t-40.5 4.5t-9.5 20.5zM0 575q0 16 9.5 20.5t40.5 4.5t40.5 -4.5t9.5 -20.5t-9.5 -20.5t-40.5 -4.5t-40.5 4.5t-9.5 20.5zM50 675q0 17 13 21t62 4t62 -4t13 -21t-13 -21t-62 -4t-62 4t-13 21z
" />
    <glyph glyph-name="macron" unicode="&#xaf;" 
d="M150 -125q0 16 9.5 20.5t40.5 4.5t40.5 -4.5t9.5 -20.5t-9.5 -20.5t-40.5 -4.5t-40.5 4.5t-9.5 20.5zM150 -25q0 16 9.5 20.5t40.5 4.5t40.5 -4.5t9.5 -20.5t-9.5 -20.5t-40.5 -4.5t-40.5 4.5t-9.5 20.5zM150 75q0 17 16 21t84 4t84 -4t16 -21t-16 -21t-84 -4t-84 4
t-16 21zM150 175q0 16 9.5 20.5t40.5 4.5t40.5 -4.5t9.5 -20.5t-9.5 -20.5t-40.5 -4.5t-40.5 4.5t-9.5 20.5zM150 275q0 9 2.5 13.5t17 7.5t36.5 3.5t69 0.5t69 -0.5t36.5 -3.5t17 -7.5t2.5 -13.5t-2.5 -13.5t-17 -7.5t-36.5 -3.5t-69 -0.5t-69 0.5t-36.5 3.5t-17 7.5
t-2.5 13.5zM0 275q0 16 9.5 20.5t40.5 4.5t40.5 -4.5t9.5 -20.5t-9.5 -20.5t-40.5 -4.5t-40.5 4.5t-9.5 20.5zM150 375q0 16 9.5 20.5t40.5 4.5t40.5 -4.5t9.5 -20.5t-9.5 -20.5t-40.5 -4.5t-40.5 4.5t-9.5 20.5zM0 375q0 16 9.5 20.5t40.5 4.5t40.5 -4.5t9.5 -20.5
t-9.5 -20.5t-40.5 -4.5t-40.5 4.5t-9.5 20.5zM0 475q0 9 2.5 13.5t17 7.5t36.5 3.5t69 0.5t69 -0.5t36.5 -3.5t17 -7.5t2.5 -13.5t-2.5 -13.5t-17 -7.5t-36.5 -3.5t-69 -0.5t-69 0.5t-36.5 3.5t-17 7.5t-2.5 13.5zM150 575q0 16 9.5 20.5t40.5 4.5t40.5 -4.5t9.5 -20.5
t-9.5 -20.5t-40.5 -4.5t-40.5 4.5t-9.5 20.5zM0 575q0 16 9.5 20.5t40.5 4.5t40.5 -4.5t9.5 -20.5t-9.5 -20.5t-40.5 -4.5t-40.5 4.5t-9.5 20.5zM50 675q0 17 13 21t62 4t62 -4t13 -21t-13 -21t-62 -4t-62 4t-13 21z" />
    <glyph glyph-name="degree" unicode="&#xb0;" 
d="M100 475q0 17 16 21t84 4t84 -4t16 -21t-16 -21t-84 -4t-84 4t-16 21zM250 575q0 16 9.5 20.5t40.5 4.5t40.5 -4.5t9.5 -20.5t-9.5 -20.5t-40.5 -4.5t-40.5 4.5t-9.5 20.5zM50 575q0 16 9.5 20.5t40.5 4.5t40.5 -4.5t9.5 -20.5t-9.5 -20.5t-40.5 -4.5t-40.5 4.5
t-9.5 20.5zM100 675q0 17 16 21t84 4t84 -4t16 -21t-16 -21t-84 -4t-84 4t-16 21z" />
    <glyph glyph-name="plusminus" unicode="&#xb1;" 
d="M0 75q0 15 15 19q24 6 185 6q173 0 191 -9q9 -4 9 -16q0 -15 -15 -19q-24 -6 -185 -6q-173 0 -191 9q-9 4 -9 16zM150 175q0 16 9.5 20.5t40.5 4.5t40.5 -4.5t9.5 -20.5t-9.5 -20.5t-40.5 -4.5t-40.5 4.5t-9.5 20.5zM150 275q0 16 9.5 20.5t40.5 4.5t40.5 -4.5t9.5 -20.5
t-9.5 -20.5t-40.5 -4.5t-40.5 4.5t-9.5 20.5zM0 375q0 15 15 19q24 6 185 6q173 0 191 -9q9 -4 9 -16q0 -15 -15 -19q-24 -6 -185 -6q-173 0 -191 9q-9 4 -9 16zM150 475q0 16 9.5 20.5t40.5 4.5t40.5 -4.5t9.5 -20.5t-9.5 -20.5t-40.5 -4.5t-40.5 4.5t-9.5 20.5zM150 575
q0 16 9.5 20.5t40.5 4.5t40.5 -4.5t9.5 -20.5t-9.5 -20.5t-40.5 -4.5t-40.5 4.5t-9.5 20.5z" />
    <glyph glyph-name="uni00B2" unicode="&#xb2;" 
d="M50 375q0 16 15 20q19 5 135 5q129 0 143 -9q7 -4 7 -16q0 -16 -15 -20q-19 -5 -135 -5q-129 0 -143 9q-7 4 -7 16zM100 475q0 16 9.5 20.5t40.5 4.5t40.5 -4.5t9.5 -20.5t-9.5 -20.5t-40.5 -4.5t-40.5 4.5t-9.5 20.5zM150 575q0 17 13 21t62 4t62 -4t13 -21t-13 -21
t-62 -4t-62 4t-13 21zM250 675q0 16 9.5 20.5t40.5 4.5t40.5 -4.5t9.5 -20.5t-9.5 -20.5t-40.5 -4.5t-40.5 4.5t-9.5 20.5zM50 675q0 16 9.5 20.5t40.5 4.5t40.5 -4.5t9.5 -20.5t-9.5 -20.5t-40.5 -4.5t-40.5 4.5t-9.5 20.5zM100 775q0 17 16 21t84 4t84 -4t16 -21t-16 -21
t-84 -4t-84 4t-16 21z" />
    <glyph glyph-name="uni00B3" unicode="&#xb3;" 
d="M50 375q0 9 2.5 13.5t17 7.5t36.5 3.5t69 0.5t69 -0.5t36.5 -3.5t17 -7.5t2.5 -13.5t-2.5 -13.5t-17 -7.5t-36.5 -3.5t-69 -0.5t-69 0.5t-36.5 3.5t-17 7.5t-2.5 13.5zM250 475q0 16 9.5 20.5t40.5 4.5t40.5 -4.5t9.5 -20.5t-9.5 -20.5t-40.5 -4.5t-40.5 4.5t-9.5 20.5z
M150 575q0 17 13 21t62 4t62 -4t13 -21t-13 -21t-62 -4t-62 4t-13 21zM250 675q0 16 9.5 20.5t40.5 4.5t40.5 -4.5t9.5 -20.5t-9.5 -20.5t-40.5 -4.5t-40.5 4.5t-9.5 20.5zM50 775q0 16 15 20q19 5 135 5q129 0 143 -9q7 -4 7 -16q0 -16 -15 -20q-19 -5 -135 -5
q-129 0 -143 9q-7 4 -7 16z" />
    <glyph glyph-name="acute" unicode="&#xb4;" 
d="M250 -125q0 16 9.5 20.5t40.5 4.5t40.5 -4.5t9.5 -20.5t-9.5 -20.5t-40.5 -4.5t-40.5 4.5t-9.5 20.5zM100 -25q0 16 15 20q19 5 135 5q129 0 143 -9q7 -4 7 -16q0 -16 -15 -20q-19 -5 -135 -5q-129 0 -143 9q-7 4 -7 16zM150 75q0 17 16 21t84 4t84 -4t16 -21t-16 -21
t-84 -4t-84 4t-16 21zM200 175q0 17 13 21t62 4t62 -4t13 -21t-13 -21t-62 -4t-62 4t-13 21zM250 275q0 16 9.5 20.5t40.5 4.5t40.5 -4.5t9.5 -20.5t-9.5 -20.5t-40.5 -4.5t-40.5 4.5t-9.5 20.5zM0 275q0 17 16 21t84 4t84 -4t16 -21t-16 -21t-84 -4t-84 4t-16 21zM150 375
q0 16 9.5 20.5t40.5 4.5t40.5 -4.5t9.5 -20.5t-9.5 -20.5t-40.5 -4.5t-40.5 4.5t-9.5 20.5zM0 375q0 16 9.5 20.5t40.5 4.5t40.5 -4.5t9.5 -20.5t-9.5 -20.5t-40.5 -4.5t-40.5 4.5t-9.5 20.5zM0 475q0 17 16 21t84 4t84 -4t16 -21t-16 -21t-84 -4t-84 4t-16 21zM150 575
q0 16 9.5 20.5t40.5 4.5t40.5 -4.5t9.5 -20.5t-9.5 -20.5t-40.5 -4.5t-40.5 4.5t-9.5 20.5zM0 575q0 16 9.5 20.5t40.5 4.5t40.5 -4.5t9.5 -20.5t-9.5 -20.5t-40.5 -4.5t-40.5 4.5t-9.5 20.5zM0 675q0 17 16 21t84 4t84 -4t16 -21t-16 -21t-84 -4t-84 4t-16 21z" />
    <glyph glyph-name="uni00B5" unicode="&#xb5;" 
d="M0 -125q0 16 9.5 20.5t40.5 4.5t40.5 -4.5t9.5 -20.5t-9.5 -20.5t-40.5 -4.5t-40.5 4.5t-9.5 20.5zM50 -25q0 16 9.5 20.5t40.5 4.5t40.5 -4.5t9.5 -20.5t-9.5 -20.5t-40.5 -4.5t-40.5 4.5t-9.5 20.5zM50 75q0 15 15 19q22 6 160 6q151 0 167 -9q8 -4 8 -16
q0 -15 -15 -19q-22 -6 -160 -6q-151 0 -167 9q-8 4 -8 16zM250 175q0 17 13 21t62 4q50 0 62.5 -4t12.5 -21t-12.5 -21t-62.5 -4q-49 0 -62 4t-13 21zM50 175q0 17 13 21t62 4t62 -4t13 -21t-13 -21t-62 -4t-62 4t-13 21zM300 275q0 16 9.5 20.5t40.5 4.5t40.5 -4.5
t9.5 -20.5t-9.5 -20.5t-40.5 -4.5t-40.5 4.5t-9.5 20.5zM50 275q0 16 9.5 20.5t40.5 4.5t40.5 -4.5t9.5 -20.5t-9.5 -20.5t-40.5 -4.5t-40.5 4.5t-9.5 20.5zM300 375q0 16 9.5 20.5t40.5 4.5t40.5 -4.5t9.5 -20.5t-9.5 -20.5t-40.5 -4.5t-40.5 4.5t-9.5 20.5zM50 375
q0 16 9.5 20.5t40.5 4.5t40.5 -4.5t9.5 -20.5t-9.5 -20.5t-40.5 -4.5t-40.5 4.5t-9.5 20.5zM300 475q0 16 9.5 20.5t40.5 4.5t40.5 -4.5t9.5 -20.5t-9.5 -20.5t-40.5 -4.5t-40.5 4.5t-9.5 20.5zM50 475q0 16 9.5 20.5t40.5 4.5t40.5 -4.5t9.5 -20.5t-9.5 -20.5t-40.5 -4.5
t-40.5 4.5t-9.5 20.5z" />
    <glyph glyph-name="paragraph" unicode="&#xb6;" 
d="M200 75q0 17 16 21t84 4t84 -4t16 -21t-16 -21t-84 -4t-84 4t-16 21zM200 175q0 17 16 21t84 4t84 -4t16 -21t-16 -21t-84 -4t-84 4t-16 21zM200 275q0 17 16 21t84 4t84 -4t16 -21t-16 -21t-84 -4t-84 4t-16 21zM50 375q0 15 15 19q22 6 160 6q151 0 167 -9q8 -4 8 -16
q0 -15 -15 -19q-22 -6 -160 -6q-151 0 -167 9q-8 4 -8 16zM200 475q0 17 16 21t84 4t84 -4t16 -21t-16 -21t-84 -4t-84 4t-16 21zM0 475q0 17 13 21t62 4t62 -4t13 -21t-13 -21t-62 -4t-62 4t-13 21zM200 575q0 17 16 21t84 4t84 -4t16 -21t-16 -21t-84 -4t-84 4t-16 21z
M0 575q0 17 13 21t62 4t62 -4t13 -21t-13 -21t-62 -4t-62 4t-13 21zM50 675q0 15 15 19q22 6 160 6q151 0 167 -9q8 -4 8 -16q0 -15 -15 -19q-22 -6 -160 -6q-151 0 -167 9q-8 4 -8 16z" />
    <glyph glyph-name="periodcentered" unicode="&#xb7;" 
d="M100 375q0 17 13 21t62 4t62 -4t13 -21t-13 -21t-62 -4t-62 4t-13 21zM100 475q0 17 13 21t62 4t62 -4t13 -21t-13 -21t-62 -4t-62 4t-13 21z" />
    <glyph glyph-name="cedilla" unicode="&#xb8;" 
d="M200 -125q0 17 13 21t62 4t62 -4t13 -21t-13 -21t-62 -4t-62 4t-13 21zM300 -25q0 16 9.5 20.5t40.5 4.5t40.5 -4.5t9.5 -20.5t-9.5 -20.5t-40.5 -4.5t-40.5 4.5t-9.5 20.5zM150 -25q0 16 9.5 20.5t40.5 4.5t40.5 -4.5t9.5 -20.5t-9.5 -20.5t-40.5 -4.5t-40.5 4.5
t-9.5 20.5zM200 75q0 17 13 21t62 4t62 -4t13 -21t-13 -21t-62 -4t-62 4t-13 21zM300 175q0 16 9.5 20.5t40.5 4.5t40.5 -4.5t9.5 -20.5t-9.5 -20.5t-40.5 -4.5t-40.5 4.5t-9.5 20.5zM150 175q0 16 9.5 20.5t40.5 4.5t40.5 -4.5t9.5 -20.5t-9.5 -20.5t-40.5 -4.5t-40.5 4.5
t-9.5 20.5zM0 275q0 15 15 19q22 6 160 6q151 0 167 -9q8 -4 8 -16q0 -15 -15 -19q-22 -6 -160 -6q-151 0 -167 9q-8 4 -8 16zM150 375q0 16 9.5 20.5t40.5 4.5t40.5 -4.5t9.5 -20.5t-9.5 -20.5t-40.5 -4.5t-40.5 4.5t-9.5 20.5zM0 375q0 16 9.5 20.5t40.5 4.5t40.5 -4.5
t9.5 -20.5t-9.5 -20.5t-40.5 -4.5t-40.5 4.5t-9.5 20.5zM0 475q0 17 16 21t84 4t84 -4t16 -21t-16 -21t-84 -4t-84 4t-16 21zM150 575q0 16 9.5 20.5t40.5 4.5t40.5 -4.5t9.5 -20.5t-9.5 -20.5t-40.5 -4.5t-40.5 4.5t-9.5 20.5zM0 575q0 16 9.5 20.5t40.5 4.5t40.5 -4.5
t9.5 -20.5t-9.5 -20.5t-40.5 -4.5t-40.5 4.5t-9.5 20.5zM0 675q0 17 16 21t84 4t84 -4t16 -21t-16 -21t-84 -4t-84 4t-16 21z" />
    <glyph glyph-name="uni00B9" unicode="&#xb9;" 
d="M100 375q0 17 16 21t84 4t84 -4t16 -21t-16 -21t-84 -4t-84 4t-16 21zM150 475q0 16 9.5 20.5t40.5 4.5t40.5 -4.5t9.5 -20.5t-9.5 -20.5t-40.5 -4.5t-40.5 4.5t-9.5 20.5zM150 575q0 16 9.5 20.5t40.5 4.5t40.5 -4.5t9.5 -20.5t-9.5 -20.5t-40.5 -4.5t-40.5 4.5
t-9.5 20.5zM100 675q0 17 13 21t62 4t62 -4t13 -21t-13 -21t-62 -4t-62 4t-13 21zM150 775q0 16 9.5 20.5t40.5 4.5t40.5 -4.5t9.5 -20.5t-9.5 -20.5t-40.5 -4.5t-40.5 4.5t-9.5 20.5z" />
    <glyph glyph-name="ordmasculine" unicode="&#xba;" 
d="M0 75q0 15 15 19q24 6 185 6q173 0 191 -9q9 -4 9 -16q0 -15 -15 -19q-24 -6 -185 -6q-173 0 -191 9q-9 4 -9 16zM50 275q0 16 15 20q19 5 135 5q129 0 143 -9q7 -4 7 -16q0 -16 -15 -20q-19 -5 -135 -5q-129 0 -143 9q-7 4 -7 16zM300 375q0 16 9.5 20.5t40.5 4.5
t40.5 -4.5t9.5 -20.5t-9.5 -20.5t-40.5 -4.5t-40.5 4.5t-9.5 20.5zM0 375q0 16 9.5 20.5t40.5 4.5t40.5 -4.5t9.5 -20.5t-9.5 -20.5t-40.5 -4.5t-40.5 4.5t-9.5 20.5zM300 475q0 16 9.5 20.5t40.5 4.5t40.5 -4.5t9.5 -20.5t-9.5 -20.5t-40.5 -4.5t-40.5 4.5t-9.5 20.5z
M0 475q0 16 9.5 20.5t40.5 4.5t40.5 -4.5t9.5 -20.5t-9.5 -20.5t-40.5 -4.5t-40.5 4.5t-9.5 20.5zM300 575q0 16 9.5 20.5t40.5 4.5t40.5 -4.5t9.5 -20.5t-9.5 -20.5t-40.5 -4.5t-40.5 4.5t-9.5 20.5zM0 575q0 16 9.5 20.5t40.5 4.5t40.5 -4.5t9.5 -20.5t-9.5 -20.5
t-40.5 -4.5t-40.5 4.5t-9.5 20.5zM50 675q0 16 15 20q19 5 135 5q129 0 143 -9q7 -4 7 -16q0 -16 -15 -20q-19 -5 -135 -5q-129 0 -143 9q-7 4 -7 16z" />
    <glyph glyph-name="guillemotright" unicode="&#xbb;" 
d="M150 75q0 16 9.5 20.5t40.5 4.5t40.5 -4.5t9.5 -20.5t-9.5 -20.5t-40.5 -4.5t-40.5 4.5t-9.5 20.5zM0 75q0 16 9.5 20.5t40.5 4.5t40.5 -4.5t9.5 -20.5t-9.5 -20.5t-40.5 -4.5t-40.5 4.5t-9.5 20.5zM200 175q0 16 9.5 20.5t40.5 4.5t40.5 -4.5t9.5 -20.5t-9.5 -20.5
t-40.5 -4.5t-40.5 4.5t-9.5 20.5zM50 175q0 16 9.5 20.5t40.5 4.5t40.5 -4.5t9.5 -20.5t-9.5 -20.5t-40.5 -4.5t-40.5 4.5t-9.5 20.5zM250 275q0 16 9.5 20.5t40.5 4.5t40.5 -4.5t9.5 -20.5t-9.5 -20.5t-40.5 -4.5t-40.5 4.5t-9.5 20.5zM100 275q0 16 9.5 20.5t40.5 4.5
t40.5 -4.5t9.5 -20.5t-9.5 -20.5t-40.5 -4.5t-40.5 4.5t-9.5 20.5zM300 375q0 16 9.5 20.5t40.5 4.5t40.5 -4.5t9.5 -20.5t-9.5 -20.5t-40.5 -4.5t-40.5 4.5t-9.5 20.5zM150 375q0 16 9.5 20.5t40.5 4.5t40.5 -4.5t9.5 -20.5t-9.5 -20.5t-40.5 -4.5t-40.5 4.5t-9.5 20.5z
M250 475q0 16 9.5 20.5t40.5 4.5t40.5 -4.5t9.5 -20.5t-9.5 -20.5t-40.5 -4.5t-40.5 4.5t-9.5 20.5zM100 475q0 16 9.5 20.5t40.5 4.5t40.5 -4.5t9.5 -20.5t-9.5 -20.5t-40.5 -4.5t-40.5 4.5t-9.5 20.5zM200 575q0 16 9.5 20.5t40.5 4.5t40.5 -4.5t9.5 -20.5t-9.5 -20.5
t-40.5 -4.5t-40.5 4.5t-9.5 20.5zM50 575q0 16 9.5 20.5t40.5 4.5t40.5 -4.5t9.5 -20.5t-9.5 -20.5t-40.5 -4.5t-40.5 4.5t-9.5 20.5zM150 675q0 16 9.5 20.5t40.5 4.5t40.5 -4.5t9.5 -20.5t-9.5 -20.5t-40.5 -4.5t-40.5 4.5t-9.5 20.5zM0 675q0 16 9.5 20.5t40.5 4.5
t40.5 -4.5t9.5 -20.5t-9.5 -20.5t-40.5 -4.5t-40.5 4.5t-9.5 20.5z" />
    <glyph glyph-name="onequarter" unicode="&#xbc;" 
d="M250 -125q0 16 9.5 20.5t40.5 4.5t40.5 -4.5t9.5 -20.5t-9.5 -20.5t-40.5 -4.5t-40.5 4.5t-9.5 20.5zM100 -25q0 16 15 20q19 5 135 5q129 0 143 -9q7 -4 7 -16q0 -16 -15 -20q-19 -5 -135 -5q-129 0 -143 9q-7 4 -7 16zM150 75q0 17 16 21t84 4t84 -4t16 -21t-16 -21
t-84 -4t-84 4t-16 21zM0 75q0 16 9.5 20.5t40.5 4.5t40.5 -4.5t9.5 -20.5t-9.5 -20.5t-40.5 -4.5t-40.5 4.5t-9.5 20.5zM200 175q0 17 13 21t62 4t62 -4t13 -21t-13 -21t-62 -4t-62 4t-13 21zM50 175q0 16 9.5 20.5t40.5 4.5t40.5 -4.5t9.5 -20.5t-9.5 -20.5t-40.5 -4.5
t-40.5 4.5t-9.5 20.5zM250 275q0 16 9.5 20.5t40.5 4.5t40.5 -4.5t9.5 -20.5t-9.5 -20.5t-40.5 -4.5t-40.5 4.5t-9.5 20.5zM100 275q0 16 9.5 20.5t40.5 4.5t40.5 -4.5t9.5 -20.5t-9.5 -20.5t-40.5 -4.5t-40.5 4.5t-9.5 20.5zM50 375q0 17 16 21t84 4t84 -4t16 -21t-16 -21
t-84 -4t-84 4t-16 21zM200 475q0 16 9.5 20.5t40.5 4.5t40.5 -4.5t9.5 -20.5t-9.5 -20.5t-40.5 -4.5t-40.5 4.5t-9.5 20.5zM50 475q0 16 9.5 20.5t40.5 4.5t40.5 -4.5t9.5 -20.5t-9.5 -20.5t-40.5 -4.5t-40.5 4.5t-9.5 20.5zM250 575q0 16 9.5 20.5t40.5 4.5t40.5 -4.5
t9.5 -20.5t-9.5 -20.5t-40.5 -4.5t-40.5 4.5t-9.5 20.5zM0 575q0 17 13 21t62 4t62 -4t13 -21t-13 -21t-62 -4t-62 4t-13 21zM50 675q0 16 9.5 20.5t40.5 4.5t40.5 -4.5t9.5 -20.5t-9.5 -20.5t-40.5 -4.5t-40.5 4.5t-9.5 20.5z" />
    <glyph glyph-name="onehalf" unicode="&#xbd;" 
d="M150 -125q0 9 2.5 13.5t17 7.5t36.5 3.5t69 0.5t69 -0.5t36.5 -3.5t17 -7.5t2.5 -13.5t-2.5 -13.5t-17 -7.5t-36.5 -3.5t-69 -0.5t-69 0.5t-36.5 3.5t-17 7.5t-2.5 13.5zM200 -25q0 16 9.5 20.5t40.5 4.5t40.5 -4.5t9.5 -20.5t-9.5 -20.5t-40.5 -4.5t-40.5 4.5t-9.5 20.5
zM250 75q0 16 9.5 20.5t40.5 4.5t40.5 -4.5t9.5 -20.5t-9.5 -20.5t-40.5 -4.5t-40.5 4.5t-9.5 20.5zM0 75q0 16 9.5 20.5t40.5 4.5t40.5 -4.5t9.5 -20.5t-9.5 -20.5t-40.5 -4.5t-40.5 4.5t-9.5 20.5zM300 175q0 16 9.5 20.5t40.5 4.5t40.5 -4.5t9.5 -20.5t-9.5 -20.5
t-40.5 -4.5t-40.5 4.5t-9.5 20.5zM50 175q0 17 16 21t84 4t84 -4t16 -21t-16 -21t-84 -4t-84 4t-16 21zM100 275q0 9 2.5 13.5t17 7.5t36.5 3.5t69 0.5t69 -0.5t36.5 -3.5t17 -7.5t2.5 -13.5t-2.5 -13.5t-17 -7.5t-36.5 -3.5t-69 -0.5t-69 0.5t-36.5 3.5t-17 7.5t-2.5 13.5z
M50 375q0 17 16 21t84 4t84 -4t16 -21t-16 -21t-84 -4t-84 4t-16 21zM200 475q0 16 9.5 20.5t40.5 4.5t40.5 -4.5t9.5 -20.5t-9.5 -20.5t-40.5 -4.5t-40.5 4.5t-9.5 20.5zM50 475q0 16 9.5 20.5t40.5 4.5t40.5 -4.5t9.5 -20.5t-9.5 -20.5t-40.5 -4.5t-40.5 4.5t-9.5 20.5z
M250 575q0 16 9.5 20.5t40.5 4.5t40.5 -4.5t9.5 -20.5t-9.5 -20.5t-40.5 -4.5t-40.5 4.5t-9.5 20.5zM0 575q0 17 13 21t62 4t62 -4t13 -21t-13 -21t-62 -4t-62 4t-13 21zM50 675q0 16 9.5 20.5t40.5 4.5t40.5 -4.5t9.5 -20.5t-9.5 -20.5t-40.5 -4.5t-40.5 4.5t-9.5 20.5z
" />
    <glyph glyph-name="threequarters" unicode="&#xbe;" 
d="M150 -125q0 9 2.5 13.5t17 7.5t36.5 3.5t69 0.5t69 -0.5t36.5 -3.5t17 -7.5t2.5 -13.5t-2.5 -13.5t-17 -7.5t-36.5 -3.5t-69 -0.5t-69 0.5t-36.5 3.5t-17 7.5t-2.5 13.5zM150 -25q0 16 9.5 20.5t40.5 4.5t40.5 -4.5t9.5 -20.5t-9.5 -20.5t-40.5 -4.5t-40.5 4.5t-9.5 20.5
zM150 75q0 17 16 21t84 4t84 -4t16 -21t-16 -21t-84 -4t-84 4t-16 21zM150 175q0 16 9.5 20.5t40.5 4.5t40.5 -4.5t9.5 -20.5t-9.5 -20.5t-40.5 -4.5t-40.5 4.5t-9.5 20.5zM0 275q0 15 15 19q24 6 185 6q173 0 191 -9q9 -4 9 -16q0 -15 -15 -19q-24 -6 -185 -6
q-173 0 -191 9q-9 4 -9 16zM150 375q0 16 9.5 20.5t40.5 4.5t40.5 -4.5t9.5 -20.5t-9.5 -20.5t-40.5 -4.5t-40.5 4.5t-9.5 20.5zM0 375q0 16 9.5 20.5t40.5 4.5t40.5 -4.5t9.5 -20.5t-9.5 -20.5t-40.5 -4.5t-40.5 4.5t-9.5 20.5zM0 475q0 17 16 21t84 4t84 -4t16 -21
t-16 -21t-84 -4t-84 4t-16 21zM150 575q0 16 9.5 20.5t40.5 4.5t40.5 -4.5t9.5 -20.5t-9.5 -20.5t-40.5 -4.5t-40.5 4.5t-9.5 20.5zM0 575q0 16 9.5 20.5t40.5 4.5t40.5 -4.5t9.5 -20.5t-9.5 -20.5t-40.5 -4.5t-40.5 4.5t-9.5 20.5zM0 675q0 17 16 21t84 4t84 -4t16 -21
t-16 -21t-84 -4t-84 4t-16 21z" />
    <glyph glyph-name="questiondown" unicode="&#xbf;" 
d="M50 75q0 16 15 20q19 5 135 5q129 0 143 -9q7 -4 7 -16q0 -16 -15 -20q-19 -5 -135 -5q-129 0 -143 9q-7 4 -7 16zM300 175q0 16 9.5 20.5t40.5 4.5t40.5 -4.5t9.5 -20.5t-9.5 -20.5t-40.5 -4.5t-40.5 4.5t-9.5 20.5zM0 175q0 16 9.5 20.5t40.5 4.5t40.5 -4.5t9.5 -20.5
t-9.5 -20.5t-40.5 -4.5t-40.5 4.5t-9.5 20.5zM50 275q0 17 13 21t62 4t62 -4t13 -21t-13 -21t-62 -4t-62 4t-13 21zM150 375q0 16 9.5 20.5t40.5 4.5t40.5 -4.5t9.5 -20.5t-9.5 -20.5t-40.5 -4.5t-40.5 4.5t-9.5 20.5zM150 475q0 16 9.5 20.5t40.5 4.5t40.5 -4.5t9.5 -20.5
t-9.5 -20.5t-40.5 -4.5t-40.5 4.5t-9.5 20.5zM150 675q0 16 9.5 20.5t40.5 4.5t40.5 -4.5t9.5 -20.5t-9.5 -20.5t-40.5 -4.5t-40.5 4.5t-9.5 20.5z" />
    <glyph glyph-name="Agrave" unicode="&#xc0;" 
d="M300 75q0 16 9.5 20.5t40.5 4.5t40.5 -4.5t9.5 -20.5t-9.5 -20.5t-40.5 -4.5t-40.5 4.5t-9.5 20.5zM0 75q0 16 9.5 20.5t40.5 4.5t40.5 -4.5t9.5 -20.5t-9.5 -20.5t-40.5 -4.5t-40.5 4.5t-9.5 20.5zM300 175q0 16 9.5 20.5t40.5 4.5t40.5 -4.5t9.5 -20.5t-9.5 -20.5
t-40.5 -4.5t-40.5 4.5t-9.5 20.5zM0 175q0 16 9.5 20.5t40.5 4.5t40.5 -4.5t9.5 -20.5t-9.5 -20.5t-40.5 -4.5t-40.5 4.5t-9.5 20.5zM0 275q0 15 15 19q24 6 185 6q173 0 191 -9q9 -4 9 -16q0 -15 -15 -19q-24 -6 -185 -6q-173 0 -191 9q-9 4 -9 16zM250 375q0 16 9.5 20.5
t40.5 4.5t40.5 -4.5t9.5 -20.5t-9.5 -20.5t-40.5 -4.5t-40.5 4.5t-9.5 20.5zM50 375q0 16 9.5 20.5t40.5 4.5t40.5 -4.5t9.5 -20.5t-9.5 -20.5t-40.5 -4.5t-40.5 4.5t-9.5 20.5zM100 475q0 17 16 21t84 4t84 -4t16 -21t-16 -21t-84 -4t-84 4t-16 21zM150 575q0 16 9.5 20.5
t40.5 4.5t40.5 -4.5t9.5 -20.5t-9.5 -20.5t-40.5 -4.5t-40.5 4.5t-9.5 20.5zM200 675q0 17 13 21t62 4t62 -4t13 -21t-13 -21t-62 -4t-62 4t-13 21zM100 775q0 17 13 21t62 4t62 -4t13 -21t-13 -21t-62 -4t-62 4t-13 21z" />
    <glyph glyph-name="Aacute" unicode="&#xc1;" 
d="M300 75q0 16 9.5 20.5t40.5 4.5t40.5 -4.5t9.5 -20.5t-9.5 -20.5t-40.5 -4.5t-40.5 4.5t-9.5 20.5zM0 75q0 16 9.5 20.5t40.5 4.5t40.5 -4.5t9.5 -20.5t-9.5 -20.5t-40.5 -4.5t-40.5 4.5t-9.5 20.5zM300 175q0 16 9.5 20.5t40.5 4.5t40.5 -4.5t9.5 -20.5t-9.5 -20.5
t-40.5 -4.5t-40.5 4.5t-9.5 20.5zM0 175q0 16 9.5 20.5t40.5 4.5t40.5 -4.5t9.5 -20.5t-9.5 -20.5t-40.5 -4.5t-40.5 4.5t-9.5 20.5zM0 275q0 15 15 19q24 6 185 6q173 0 191 -9q9 -4 9 -16q0 -15 -15 -19q-24 -6 -185 -6q-173 0 -191 9q-9 4 -9 16zM250 375q0 16 9.5 20.5
t40.5 4.5t40.5 -4.5t9.5 -20.5t-9.5 -20.5t-40.5 -4.5t-40.5 4.5t-9.5 20.5zM50 375q0 16 9.5 20.5t40.5 4.5t40.5 -4.5t9.5 -20.5t-9.5 -20.5t-40.5 -4.5t-40.5 4.5t-9.5 20.5zM100 475q0 17 16 21t84 4t84 -4t16 -21t-16 -21t-84 -4t-84 4t-16 21zM150 575q0 16 9.5 20.5
t40.5 4.5t40.5 -4.5t9.5 -20.5t-9.5 -20.5t-40.5 -4.5t-40.5 4.5t-9.5 20.5zM50 675q0 17 13 21t62 4t62 -4t13 -21t-13 -21t-62 -4t-62 4t-13 21zM150 775q0 17 13 21t62 4t62 -4t13 -21t-13 -21t-62 -4t-62 4t-13 21z" />
    <glyph glyph-name="Acircumflex" unicode="&#xc2;" 
d="M300 75q0 16 9.5 20.5t40.5 4.5t40.5 -4.5t9.5 -20.5t-9.5 -20.5t-40.5 -4.5t-40.5 4.5t-9.5 20.5zM0 75q0 16 9.5 20.5t40.5 4.5t40.5 -4.5t9.5 -20.5t-9.5 -20.5t-40.5 -4.5t-40.5 4.5t-9.5 20.5zM300 175q0 16 9.5 20.5t40.5 4.5t40.5 -4.5t9.5 -20.5t-9.5 -20.5
t-40.5 -4.5t-40.5 4.5t-9.5 20.5zM0 175q0 16 9.5 20.5t40.5 4.5t40.5 -4.5t9.5 -20.5t-9.5 -20.5t-40.5 -4.5t-40.5 4.5t-9.5 20.5zM0 275q0 15 15 19q24 6 185 6q173 0 191 -9q9 -4 9 -16q0 -15 -15 -19q-24 -6 -185 -6q-173 0 -191 9q-9 4 -9 16zM250 375q0 16 9.5 20.5
t40.5 4.5t40.5 -4.5t9.5 -20.5t-9.5 -20.5t-40.5 -4.5t-40.5 4.5t-9.5 20.5zM50 375q0 16 9.5 20.5t40.5 4.5t40.5 -4.5t9.5 -20.5t-9.5 -20.5t-40.5 -4.5t-40.5 4.5t-9.5 20.5zM100 475q0 17 16 21t84 4t84 -4t16 -21t-16 -21t-84 -4t-84 4t-16 21zM150 575q0 16 9.5 20.5
t40.5 4.5t40.5 -4.5t9.5 -20.5t-9.5 -20.5t-40.5 -4.5t-40.5 4.5t-9.5 20.5zM250 675q0 16 9.5 20.5t40.5 4.5t40.5 -4.5t9.5 -20.5t-9.5 -20.5t-40.5 -4.5t-40.5 4.5t-9.5 20.5zM50 675q0 16 9.5 20.5t40.5 4.5t40.5 -4.5t9.5 -20.5t-9.5 -20.5t-40.5 -4.5t-40.5 4.5
t-9.5 20.5zM100 775q0 17 16 21t84 4t84 -4t16 -21t-16 -21t-84 -4t-84 4t-16 21z" />
    <glyph glyph-name="Atilde" unicode="&#xc3;" 
d="M300 75q0 16 9.5 20.5t40.5 4.5t40.5 -4.5t9.5 -20.5t-9.5 -20.5t-40.5 -4.5t-40.5 4.5t-9.5 20.5zM0 75q0 16 9.5 20.5t40.5 4.5t40.5 -4.5t9.5 -20.5t-9.5 -20.5t-40.5 -4.5t-40.5 4.5t-9.5 20.5zM300 175q0 16 9.5 20.5t40.5 4.5t40.5 -4.5t9.5 -20.5t-9.5 -20.5
t-40.5 -4.5t-40.5 4.5t-9.5 20.5zM0 175q0 16 9.5 20.5t40.5 4.5t40.5 -4.5t9.5 -20.5t-9.5 -20.5t-40.5 -4.5t-40.5 4.5t-9.5 20.5zM0 275q0 15 15 19q24 6 185 6q173 0 191 -9q9 -4 9 -16q0 -15 -15 -19q-24 -6 -185 -6q-173 0 -191 9q-9 4 -9 16zM250 375q0 16 9.5 20.5
t40.5 4.5t40.5 -4.5t9.5 -20.5t-9.5 -20.5t-40.5 -4.5t-40.5 4.5t-9.5 20.5zM50 375q0 16 9.5 20.5t40.5 4.5t40.5 -4.5t9.5 -20.5t-9.5 -20.5t-40.5 -4.5t-40.5 4.5t-9.5 20.5zM100 475q0 17 16 21t84 4t84 -4t16 -21t-16 -21t-84 -4t-84 4t-16 21zM150 575q0 16 9.5 20.5
t40.5 4.5t40.5 -4.5t9.5 -20.5t-9.5 -20.5t-40.5 -4.5t-40.5 4.5t-9.5 20.5zM200 675q0 17 13 21t62 4t62 -4t13 -21t-13 -21t-62 -4t-62 4t-13 21zM50 675q0 16 9.5 20.5t40.5 4.5t40.5 -4.5t9.5 -20.5t-9.5 -20.5t-40.5 -4.5t-40.5 4.5t-9.5 20.5zM300 775q0 16 9.5 20.5
t40.5 4.5t40.5 -4.5t9.5 -20.5t-9.5 -20.5t-40.5 -4.5t-40.5 4.5t-9.5 20.5zM100 775q0 17 13 21t62 4t62 -4t13 -21t-13 -21t-62 -4t-62 4t-13 21z" />
    <glyph glyph-name="Adieresis" unicode="&#xc4;" 
d="M300 75q0 16 9.5 20.5t40.5 4.5t40.5 -4.5t9.5 -20.5t-9.5 -20.5t-40.5 -4.5t-40.5 4.5t-9.5 20.5zM0 75q0 16 9.5 20.5t40.5 4.5t40.5 -4.5t9.5 -20.5t-9.5 -20.5t-40.5 -4.5t-40.5 4.5t-9.5 20.5zM300 175q0 16 9.5 20.5t40.5 4.5t40.5 -4.5t9.5 -20.5t-9.5 -20.5
t-40.5 -4.5t-40.5 4.5t-9.5 20.5zM0 175q0 16 9.5 20.5t40.5 4.5t40.5 -4.5t9.5 -20.5t-9.5 -20.5t-40.5 -4.5t-40.5 4.5t-9.5 20.5zM0 275q0 15 15 19q24 6 185 6q173 0 191 -9q9 -4 9 -16q0 -15 -15 -19q-24 -6 -185 -6q-173 0 -191 9q-9 4 -9 16zM250 375q0 16 9.5 20.5
t40.5 4.5t40.5 -4.5t9.5 -20.5t-9.5 -20.5t-40.5 -4.5t-40.5 4.5t-9.5 20.5zM50 375q0 16 9.5 20.5t40.5 4.5t40.5 -4.5t9.5 -20.5t-9.5 -20.5t-40.5 -4.5t-40.5 4.5t-9.5 20.5zM100 475q0 17 16 21t84 4t84 -4t16 -21t-16 -21t-84 -4t-84 4t-16 21zM150 575q0 16 9.5 20.5
t40.5 4.5t40.5 -4.5t9.5 -20.5t-9.5 -20.5t-40.5 -4.5t-40.5 4.5t-9.5 20.5zM250 775q0 16 9.5 20.5t40.5 4.5t40.5 -4.5t9.5 -20.5t-9.5 -20.5t-40.5 -4.5t-40.5 4.5t-9.5 20.5zM50 775q0 16 9.5 20.5t40.5 4.5t40.5 -4.5t9.5 -20.5t-9.5 -20.5t-40.5 -4.5t-40.5 4.5
t-9.5 20.5z" />
    <glyph glyph-name="Aring" unicode="&#xc5;" 
d="M300 75q0 16 9.5 20.5t40.5 4.5t40.5 -4.5t9.5 -20.5t-9.5 -20.5t-40.5 -4.5t-40.5 4.5t-9.5 20.5zM0 75q0 16 9.5 20.5t40.5 4.5t40.5 -4.5t9.5 -20.5t-9.5 -20.5t-40.5 -4.5t-40.5 4.5t-9.5 20.5zM300 175q0 16 9.5 20.5t40.5 4.5t40.5 -4.5t9.5 -20.5t-9.5 -20.5
t-40.5 -4.5t-40.5 4.5t-9.5 20.5zM0 175q0 16 9.5 20.5t40.5 4.5t40.5 -4.5t9.5 -20.5t-9.5 -20.5t-40.5 -4.5t-40.5 4.5t-9.5 20.5zM0 275q0 15 15 19q24 6 185 6q173 0 191 -9q9 -4 9 -16q0 -15 -15 -19q-24 -6 -185 -6q-173 0 -191 9q-9 4 -9 16zM250 375q0 16 9.5 20.5
t40.5 4.5t40.5 -4.5t9.5 -20.5t-9.5 -20.5t-40.5 -4.5t-40.5 4.5t-9.5 20.5zM50 375q0 16 9.5 20.5t40.5 4.5t40.5 -4.5t9.5 -20.5t-9.5 -20.5t-40.5 -4.5t-40.5 4.5t-9.5 20.5zM100 475q0 17 16 21t84 4t84 -4t16 -21t-16 -21t-84 -4t-84 4t-16 21zM100 575q0 17 16 21
t84 4t84 -4t16 -21t-16 -21t-84 -4t-84 4t-16 21zM250 675q0 16 9.5 20.5t40.5 4.5t40.5 -4.5t9.5 -20.5t-9.5 -20.5t-40.5 -4.5t-40.5 4.5t-9.5 20.5zM50 675q0 16 9.5 20.5t40.5 4.5t40.5 -4.5t9.5 -20.5t-9.5 -20.5t-40.5 -4.5t-40.5 4.5t-9.5 20.5zM100 775q0 17 16 21
t84 4t84 -4t16 -21t-16 -21t-84 -4t-84 4t-16 21z" />
    <glyph glyph-name="AE" unicode="&#xc6;" 
d="M150 75q0 9 2.5 13.5t17 7.5t36.5 3.5t69 0.5t69 -0.5t36.5 -3.5t17 -7.5t2.5 -13.5t-2.5 -13.5t-17 -7.5t-36.5 -3.5t-69 -0.5t-69 0.5t-36.5 3.5t-17 7.5t-2.5 13.5zM0 75q0 16 9.5 20.5t40.5 4.5t40.5 -4.5t9.5 -20.5t-9.5 -20.5t-40.5 -4.5t-40.5 4.5t-9.5 20.5z
M150 175q0 16 9.5 20.5t40.5 4.5t40.5 -4.5t9.5 -20.5t-9.5 -20.5t-40.5 -4.5t-40.5 4.5t-9.5 20.5zM0 175q0 16 9.5 20.5t40.5 4.5t40.5 -4.5t9.5 -20.5t-9.5 -20.5t-40.5 -4.5t-40.5 4.5t-9.5 20.5zM0 275q0 9 2.5 13.5t17 7.5t36.5 3.5t69 0.5t69 -0.5t36.5 -3.5t17 -7.5
t2.5 -13.5t-2.5 -13.5t-17 -7.5t-36.5 -3.5t-69 -0.5t-69 0.5t-36.5 3.5t-17 7.5t-2.5 13.5zM150 375q0 17 16 21t84 4t84 -4t16 -21t-16 -21t-84 -4t-84 4t-16 21zM0 375q0 16 9.5 20.5t40.5 4.5t40.5 -4.5t9.5 -20.5t-9.5 -20.5t-40.5 -4.5t-40.5 4.5t-9.5 20.5zM150 475
q0 16 9.5 20.5t40.5 4.5t40.5 -4.5t9.5 -20.5t-9.5 -20.5t-40.5 -4.5t-40.5 4.5t-9.5 20.5zM0 475q0 16 9.5 20.5t40.5 4.5t40.5 -4.5t9.5 -20.5t-9.5 -20.5t-40.5 -4.5t-40.5 4.5t-9.5 20.5zM50 575q0 17 16 21t84 4t84 -4t16 -21t-16 -21t-84 -4t-84 4t-16 21zM100 675
q0 16 15 20q19 5 135 5q129 0 143 -9q7 -4 7 -16q0 -16 -15 -20q-19 -5 -135 -5q-129 0 -143 9q-7 4 -7 16z" />
    <glyph glyph-name="Ccedilla" unicode="&#xc7;" 
d="M100 -125q0 17 16 21t84 4t84 -4t16 -21t-16 -21t-84 -4t-84 4t-16 21zM200 -25q0 16 9.5 20.5t40.5 4.5t40.5 -4.5t9.5 -20.5t-9.5 -20.5t-40.5 -4.5t-40.5 4.5t-9.5 20.5zM100 75q0 9 2.5 13.5t17 7.5t36.5 3.5t69 0.5t69 -0.5t36.5 -3.5t17 -7.5t2.5 -13.5t-2.5 -13.5
t-17 -7.5t-36.5 -3.5t-69 -0.5t-69 0.5t-36.5 3.5t-17 7.5t-2.5 13.5zM300 175q0 16 9.5 20.5t40.5 4.5t40.5 -4.5t9.5 -20.5t-9.5 -20.5t-40.5 -4.5t-40.5 4.5t-9.5 20.5zM50 175q0 16 9.5 20.5t40.5 4.5t40.5 -4.5t9.5 -20.5t-9.5 -20.5t-40.5 -4.5t-40.5 4.5t-9.5 20.5z
M0 275q0 16 9.5 20.5t40.5 4.5t40.5 -4.5t9.5 -20.5t-9.5 -20.5t-40.5 -4.5t-40.5 4.5t-9.5 20.5zM0 375q0 16 9.5 20.5t40.5 4.5t40.5 -4.5t9.5 -20.5t-9.5 -20.5t-40.5 -4.5t-40.5 4.5t-9.5 20.5zM0 475q0 16 9.5 20.5t40.5 4.5t40.5 -4.5t9.5 -20.5t-9.5 -20.5
t-40.5 -4.5t-40.5 4.5t-9.5 20.5zM300 575q0 16 9.5 20.5t40.5 4.5t40.5 -4.5t9.5 -20.5t-9.5 -20.5t-40.5 -4.5t-40.5 4.5t-9.5 20.5zM50 575q0 16 9.5 20.5t40.5 4.5t40.5 -4.5t9.5 -20.5t-9.5 -20.5t-40.5 -4.5t-40.5 4.5t-9.5 20.5zM100 675q0 9 2.5 13.5t17 7.5
t36.5 3.5t69 0.5t69 -0.5t36.5 -3.5t17 -7.5t2.5 -13.5t-2.5 -13.5t-17 -7.5t-36.5 -3.5t-69 -0.5t-69 0.5t-36.5 3.5t-17 7.5t-2.5 13.5z" />
    <glyph glyph-name="Egrave" unicode="&#xc8;" 
d="M0 75q0 15 15 19q24 6 185 6q173 0 191 -9q9 -4 9 -16q0 -15 -15 -19q-24 -6 -185 -6q-173 0 -191 9q-9 4 -9 16zM0 175q0 16 9.5 20.5t40.5 4.5t40.5 -4.5t9.5 -20.5t-9.5 -20.5t-40.5 -4.5t-40.5 4.5t-9.5 20.5zM0 275q0 16 9.5 20.5t40.5 4.5t40.5 -4.5t9.5 -20.5
t-9.5 -20.5t-40.5 -4.5t-40.5 4.5t-9.5 20.5zM0 375q0 16 15 20q19 5 135 5q129 0 143 -9q7 -4 7 -16q0 -16 -15 -20q-19 -5 -135 -5q-129 0 -143 9q-7 4 -7 16zM0 475q0 16 9.5 20.5t40.5 4.5t40.5 -4.5t9.5 -20.5t-9.5 -20.5t-40.5 -4.5t-40.5 4.5t-9.5 20.5zM0 575
q0 15 15 19q24 6 185 6q173 0 191 -9q9 -4 9 -16q0 -15 -15 -19q-24 -6 -185 -6q-173 0 -191 9q-9 4 -9 16zM150 675q0 17 13 21t62 4t62 -4t13 -21t-13 -21t-62 -4t-62 4t-13 21zM50 775q0 17 13 21t62 4t62 -4t13 -21t-13 -21t-62 -4t-62 4t-13 21z" />
    <glyph glyph-name="Eacute" unicode="&#xc9;" 
d="M0 75q0 15 15 19q24 6 185 6q173 0 191 -9q9 -4 9 -16q0 -15 -15 -19q-24 -6 -185 -6q-173 0 -191 9q-9 4 -9 16zM0 175q0 16 9.5 20.5t40.5 4.5t40.5 -4.5t9.5 -20.5t-9.5 -20.5t-40.5 -4.5t-40.5 4.5t-9.5 20.5zM0 275q0 16 9.5 20.5t40.5 4.5t40.5 -4.5t9.5 -20.5
t-9.5 -20.5t-40.5 -4.5t-40.5 4.5t-9.5 20.5zM0 375q0 16 15 20q19 5 135 5q129 0 143 -9q7 -4 7 -16q0 -16 -15 -20q-19 -5 -135 -5q-129 0 -143 9q-7 4 -7 16zM0 475q0 16 9.5 20.5t40.5 4.5t40.5 -4.5t9.5 -20.5t-9.5 -20.5t-40.5 -4.5t-40.5 4.5t-9.5 20.5zM0 575
q0 15 15 19q24 6 185 6q173 0 191 -9q9 -4 9 -16q0 -15 -15 -19q-24 -6 -185 -6q-173 0 -191 9q-9 4 -9 16zM100 675q0 17 13 21t62 4t62 -4t13 -21t-13 -21t-62 -4t-62 4t-13 21zM200 775q0 17 13 21t62 4t62 -4t13 -21t-13 -21t-62 -4t-62 4t-13 21zM0 75q0 15 15 19
q24 6 185 6q173 0 191 -9q9 -4 9 -16q0 -15 -15 -19q-24 -6 -185 -6q-173 0 -191 9q-9 4 -9 16zM0 175q0 16 9.5 20.5t40.5 4.5t40.5 -4.5t9.5 -20.5t-9.5 -20.5t-40.5 -4.5t-40.5 4.5t-9.5 20.5zM0 275q0 16 9.5 20.5t40.5 4.5t40.5 -4.5t9.5 -20.5t-9.5 -20.5t-40.5 -4.5
t-40.5 4.5t-9.5 20.5zM0 375q0 16 15 20q19 5 135 5q129 0 143 -9q7 -4 7 -16q0 -16 -15 -20q-19 -5 -135 -5q-129 0 -143 9q-7 4 -7 16zM0 475q0 16 9.5 20.5t40.5 4.5t40.5 -4.5t9.5 -20.5t-9.5 -20.5t-40.5 -4.5t-40.5 4.5t-9.5 20.5zM0 575q0 15 15 19q24 6 185 6
q173 0 191 -9q9 -4 9 -16q0 -15 -15 -19q-24 -6 -185 -6q-173 0 -191 9q-9 4 -9 16zM100 675q0 17 13 21t62 4t62 -4t13 -21t-13 -21t-62 -4t-62 4t-13 21zM200 775q0 17 13 21t62 4t62 -4t13 -21t-13 -21t-62 -4t-62 4t-13 21z" />
    <glyph glyph-name="Ecircumflex" unicode="&#xca;" 
d="M0 75q0 15 15 19q24 6 185 6q173 0 191 -9q9 -4 9 -16q0 -15 -15 -19q-24 -6 -185 -6q-173 0 -191 9q-9 4 -9 16zM0 175q0 16 9.5 20.5t40.5 4.5t40.5 -4.5t9.5 -20.5t-9.5 -20.5t-40.5 -4.5t-40.5 4.5t-9.5 20.5zM0 275q0 16 9.5 20.5t40.5 4.5t40.5 -4.5t9.5 -20.5
t-9.5 -20.5t-40.5 -4.5t-40.5 4.5t-9.5 20.5zM0 375q0 9 2.5 13.5t17 7.5t36.5 3.5t69 0.5t69 -0.5t36.5 -3.5t17 -7.5t2.5 -13.5t-2.5 -13.5t-17 -7.5t-36.5 -3.5t-69 -0.5t-69 0.5t-36.5 3.5t-17 7.5t-2.5 13.5zM0 475q0 16 9.5 20.5t40.5 4.5t40.5 -4.5t9.5 -20.5
t-9.5 -20.5t-40.5 -4.5t-40.5 4.5t-9.5 20.5zM0 575q0 15 15 19q24 6 185 6q173 0 191 -9q9 -4 9 -16q0 -15 -15 -19q-24 -6 -185 -6q-173 0 -191 9q-9 4 -9 16zM250 675q0 16 9.5 20.5t40.5 4.5t40.5 -4.5t9.5 -20.5t-9.5 -20.5t-40.5 -4.5t-40.5 4.5t-9.5 20.5zM50 675
q0 16 9.5 20.5t40.5 4.5t40.5 -4.5t9.5 -20.5t-9.5 -20.5t-40.5 -4.5t-40.5 4.5t-9.5 20.5zM100 775q0 17 16 21t84 4t84 -4t16 -21t-16 -21t-84 -4t-84 4t-16 21z" />
    <glyph glyph-name="Edieresis" unicode="&#xcb;" 
d="M0 75q0 15 15 19q24 6 185 6q173 0 191 -9q9 -4 9 -16q0 -15 -15 -19q-24 -6 -185 -6q-173 0 -191 9q-9 4 -9 16zM0 175q0 16 9.5 20.5t40.5 4.5t40.5 -4.5t9.5 -20.5t-9.5 -20.5t-40.5 -4.5t-40.5 4.5t-9.5 20.5zM0 275q0 16 9.5 20.5t40.5 4.5t40.5 -4.5t9.5 -20.5
t-9.5 -20.5t-40.5 -4.5t-40.5 4.5t-9.5 20.5zM0 375q0 16 15 20q19 5 135 5q129 0 143 -9q7 -4 7 -16q0 -16 -15 -20q-19 -5 -135 -5q-129 0 -143 9q-7 4 -7 16zM0 475q0 16 9.5 20.5t40.5 4.5t40.5 -4.5t9.5 -20.5t-9.5 -20.5t-40.5 -4.5t-40.5 4.5t-9.5 20.5zM0 575
q0 15 15 19q24 6 185 6q173 0 191 -9q9 -4 9 -16q0 -15 -15 -19q-24 -6 -185 -6q-173 0 -191 9q-9 4 -9 16zM250 775q0 16 9.5 20.5t40.5 4.5t40.5 -4.5t9.5 -20.5t-9.5 -20.5t-40.5 -4.5t-40.5 4.5t-9.5 20.5zM50 775q0 16 9.5 20.5t40.5 4.5t40.5 -4.5t9.5 -20.5
t-9.5 -20.5t-40.5 -4.5t-40.5 4.5t-9.5 20.5z" />
    <glyph glyph-name="Igrave" unicode="&#xcc;" 
d="M50 75q0 16 15 20q19 5 135 5q129 0 143 -9q7 -4 7 -16q0 -16 -15 -20q-19 -5 -135 -5q-129 0 -143 9q-7 4 -7 16zM150 175q0 16 9.5 20.5t40.5 4.5t40.5 -4.5t9.5 -20.5t-9.5 -20.5t-40.5 -4.5t-40.5 4.5t-9.5 20.5zM150 275q0 16 9.5 20.5t40.5 4.5t40.5 -4.5
t9.5 -20.5t-9.5 -20.5t-40.5 -4.5t-40.5 4.5t-9.5 20.5zM150 375q0 16 9.5 20.5t40.5 4.5t40.5 -4.5t9.5 -20.5t-9.5 -20.5t-40.5 -4.5t-40.5 4.5t-9.5 20.5zM150 475q0 16 9.5 20.5t40.5 4.5t40.5 -4.5t9.5 -20.5t-9.5 -20.5t-40.5 -4.5t-40.5 4.5t-9.5 20.5zM50 575
q0 16 15 20q19 5 135 5q129 0 143 -9q7 -4 7 -16q0 -16 -15 -20q-19 -5 -135 -5q-129 0 -143 9q-7 4 -7 16zM200 675q0 17 13 21t62 4t62 -4t13 -21t-13 -21t-62 -4t-62 4t-13 21zM100 775q0 17 13 21t62 4t62 -4t13 -21t-13 -21t-62 -4t-62 4t-13 21z" />
    <glyph glyph-name="Iacute" unicode="&#xcd;" 
d="M50 75q0 16 15 20q19 5 135 5q129 0 143 -9q7 -4 7 -16q0 -16 -15 -20q-19 -5 -135 -5q-129 0 -143 9q-7 4 -7 16zM150 175q0 16 9.5 20.5t40.5 4.5t40.5 -4.5t9.5 -20.5t-9.5 -20.5t-40.5 -4.5t-40.5 4.5t-9.5 20.5zM150 275q0 16 9.5 20.5t40.5 4.5t40.5 -4.5
t9.5 -20.5t-9.5 -20.5t-40.5 -4.5t-40.5 4.5t-9.5 20.5zM150 375q0 16 9.5 20.5t40.5 4.5t40.5 -4.5t9.5 -20.5t-9.5 -20.5t-40.5 -4.5t-40.5 4.5t-9.5 20.5zM150 475q0 16 9.5 20.5t40.5 4.5t40.5 -4.5t9.5 -20.5t-9.5 -20.5t-40.5 -4.5t-40.5 4.5t-9.5 20.5zM50 575
q0 16 15 20q19 5 135 5q129 0 143 -9q7 -4 7 -16q0 -16 -15 -20q-19 -5 -135 -5q-129 0 -143 9q-7 4 -7 16zM50 675q0 17 13 21t62 4t62 -4t13 -21t-13 -21t-62 -4t-62 4t-13 21zM150 775q0 17 13 21t62 4t62 -4t13 -21t-13 -21t-62 -4t-62 4t-13 21z" />
    <glyph glyph-name="Icircumflex" unicode="&#xce;" 
d="M50 75q0 16 15 20q19 5 135 5q129 0 143 -9q7 -4 7 -16q0 -16 -15 -20q-19 -5 -135 -5q-129 0 -143 9q-7 4 -7 16zM150 175q0 16 9.5 20.5t40.5 4.5t40.5 -4.5t9.5 -20.5t-9.5 -20.5t-40.5 -4.5t-40.5 4.5t-9.5 20.5zM150 275q0 16 9.5 20.5t40.5 4.5t40.5 -4.5
t9.5 -20.5t-9.5 -20.5t-40.5 -4.5t-40.5 4.5t-9.5 20.5zM150 375q0 16 9.5 20.5t40.5 4.5t40.5 -4.5t9.5 -20.5t-9.5 -20.5t-40.5 -4.5t-40.5 4.5t-9.5 20.5zM150 475q0 16 9.5 20.5t40.5 4.5t40.5 -4.5t9.5 -20.5t-9.5 -20.5t-40.5 -4.5t-40.5 4.5t-9.5 20.5zM50 575
q0 16 15 20q19 5 135 5q129 0 143 -9q7 -4 7 -16q0 -16 -15 -20q-19 -5 -135 -5q-129 0 -143 9q-7 4 -7 16zM250 675q0 16 9.5 20.5t40.5 4.5t40.5 -4.5t9.5 -20.5t-9.5 -20.5t-40.5 -4.5t-40.5 4.5t-9.5 20.5zM50 675q0 16 9.5 20.5t40.5 4.5t40.5 -4.5t9.5 -20.5
t-9.5 -20.5t-40.5 -4.5t-40.5 4.5t-9.5 20.5zM100 775q0 17 16 21t84 4t84 -4t16 -21t-16 -21t-84 -4t-84 4t-16 21z" />
    <glyph glyph-name="Idieresis" unicode="&#xcf;" 
d="M50 75q0 16 15 20q19 5 135 5q129 0 143 -9q7 -4 7 -16q0 -16 -15 -20q-19 -5 -135 -5q-129 0 -143 9q-7 4 -7 16zM150 175q0 16 9.5 20.5t40.5 4.5t40.5 -4.5t9.5 -20.5t-9.5 -20.5t-40.5 -4.5t-40.5 4.5t-9.5 20.5zM150 275q0 16 9.5 20.5t40.5 4.5t40.5 -4.5
t9.5 -20.5t-9.5 -20.5t-40.5 -4.5t-40.5 4.5t-9.5 20.5zM150 375q0 16 9.5 20.5t40.5 4.5t40.5 -4.5t9.5 -20.5t-9.5 -20.5t-40.5 -4.5t-40.5 4.5t-9.5 20.5zM150 475q0 16 9.5 20.5t40.5 4.5t40.5 -4.5t9.5 -20.5t-9.5 -20.5t-40.5 -4.5t-40.5 4.5t-9.5 20.5zM50 575
q0 16 15 20q19 5 135 5q129 0 143 -9q7 -4 7 -16q0 -16 -15 -20q-19 -5 -135 -5q-129 0 -143 9q-7 4 -7 16zM250 775q0 16 9.5 20.5t40.5 4.5t40.5 -4.5t9.5 -20.5t-9.5 -20.5t-40.5 -4.5t-40.5 4.5t-9.5 20.5zM50 775q0 16 9.5 20.5t40.5 4.5t40.5 -4.5t9.5 -20.5
t-9.5 -20.5t-40.5 -4.5t-40.5 4.5t-9.5 20.5z" />
    <glyph glyph-name="Eth" unicode="&#xd0;" 
d="M200 -125q0 17 13 21t62 4t62 -4t13 -21t-13 -21t-62 -4t-62 4t-13 21zM300 -25q0 16 9.5 20.5t40.5 4.5t40.5 -4.5t9.5 -20.5t-9.5 -20.5t-40.5 -4.5t-40.5 4.5t-9.5 20.5zM150 -25q0 16 9.5 20.5t40.5 4.5t40.5 -4.5t9.5 -20.5t-9.5 -20.5t-40.5 -4.5t-40.5 4.5
t-9.5 20.5zM300 75q0 16 9.5 20.5t40.5 4.5t40.5 -4.5t9.5 -20.5t-9.5 -20.5t-40.5 -4.5t-40.5 4.5t-9.5 20.5zM150 75q0 16 9.5 20.5t40.5 4.5t40.5 -4.5t9.5 -20.5t-9.5 -20.5t-40.5 -4.5t-40.5 4.5t-9.5 20.5zM300 175q0 16 9.5 20.5t40.5 4.5t40.5 -4.5t9.5 -20.5
t-9.5 -20.5t-40.5 -4.5t-40.5 4.5t-9.5 20.5zM150 175q0 16 9.5 20.5t40.5 4.5t40.5 -4.5t9.5 -20.5t-9.5 -20.5t-40.5 -4.5t-40.5 4.5t-9.5 20.5zM0 275q0 15 15 19q22 6 160 6q151 0 167 -9q8 -4 8 -16q0 -15 -15 -19q-22 -6 -160 -6q-151 0 -167 9q-8 4 -8 16zM150 375
q0 16 9.5 20.5t40.5 4.5t40.5 -4.5t9.5 -20.5t-9.5 -20.5t-40.5 -4.5t-40.5 4.5t-9.5 20.5zM0 375q0 16 9.5 20.5t40.5 4.5t40.5 -4.5t9.5 -20.5t-9.5 -20.5t-40.5 -4.5t-40.5 4.5t-9.5 20.5zM150 475q0 16 9.5 20.5t40.5 4.5t40.5 -4.5t9.5 -20.5t-9.5 -20.5t-40.5 -4.5
t-40.5 4.5t-9.5 20.5zM0 475q0 16 9.5 20.5t40.5 4.5t40.5 -4.5t9.5 -20.5t-9.5 -20.5t-40.5 -4.5t-40.5 4.5t-9.5 20.5zM150 575q0 16 9.5 20.5t40.5 4.5t40.5 -4.5t9.5 -20.5t-9.5 -20.5t-40.5 -4.5t-40.5 4.5t-9.5 20.5zM0 575q0 16 9.5 20.5t40.5 4.5t40.5 -4.5
t9.5 -20.5t-9.5 -20.5t-40.5 -4.5t-40.5 4.5t-9.5 20.5zM0 675q0 17 16 21t84 4t84 -4t16 -21t-16 -21t-84 -4t-84 4t-16 21z" />
    <glyph glyph-name="Ntilde" unicode="&#xd1;" 
d="M300 75q0 16 9.5 20.5t40.5 4.5t40.5 -4.5t9.5 -20.5t-9.5 -20.5t-40.5 -4.5t-40.5 4.5t-9.5 20.5zM0 75q0 16 9.5 20.5t40.5 4.5t40.5 -4.5t9.5 -20.5t-9.5 -20.5t-40.5 -4.5t-40.5 4.5t-9.5 20.5zM250 175q0 17 13 21t62 4q50 0 62.5 -4t12.5 -21t-12.5 -21t-62.5 -4
q-49 0 -62 4t-13 21zM0 175q0 16 9.5 20.5t40.5 4.5t40.5 -4.5t9.5 -20.5t-9.5 -20.5t-40.5 -4.5t-40.5 4.5t-9.5 20.5zM200 275q0 17 16 21t84 4t84 -4t16 -21t-16 -21t-84 -4t-84 4t-16 21zM0 275q0 16 9.5 20.5t40.5 4.5t40.5 -4.5t9.5 -20.5t-9.5 -20.5t-40.5 -4.5
t-40.5 4.5t-9.5 20.5zM300 375q0 16 9.5 20.5t40.5 4.5t40.5 -4.5t9.5 -20.5t-9.5 -20.5t-40.5 -4.5t-40.5 4.5t-9.5 20.5zM150 375q0 16 9.5 20.5t40.5 4.5t40.5 -4.5t9.5 -20.5t-9.5 -20.5t-40.5 -4.5t-40.5 4.5t-9.5 20.5zM0 375q0 16 9.5 20.5t40.5 4.5t40.5 -4.5
t9.5 -20.5t-9.5 -20.5t-40.5 -4.5t-40.5 4.5t-9.5 20.5zM300 475q0 16 9.5 20.5t40.5 4.5t40.5 -4.5t9.5 -20.5t-9.5 -20.5t-40.5 -4.5t-40.5 4.5t-9.5 20.5zM0 475q0 17 16 21t84 4t84 -4t16 -21t-16 -21t-84 -4t-84 4t-16 21zM300 575q0 16 9.5 20.5t40.5 4.5t40.5 -4.5
t9.5 -20.5t-9.5 -20.5t-40.5 -4.5t-40.5 4.5t-9.5 20.5zM0 575q0 17 13 21t62 4t62 -4t13 -21t-13 -21t-62 -4t-62 4t-13 21zM200 675q0 17 13 21t62 4t62 -4t13 -21t-13 -21t-62 -4t-62 4t-13 21zM50 675q0 16 9.5 20.5t40.5 4.5t40.5 -4.5t9.5 -20.5t-9.5 -20.5
t-40.5 -4.5t-40.5 4.5t-9.5 20.5zM300 775q0 16 9.5 20.5t40.5 4.5t40.5 -4.5t9.5 -20.5t-9.5 -20.5t-40.5 -4.5t-40.5 4.5t-9.5 20.5zM100 775q0 17 13 21t62 4t62 -4t13 -21t-13 -21t-62 -4t-62 4t-13 21z" />
    <glyph glyph-name="Ograve" unicode="&#xd2;" 
d="M50 75q0 16 15 20q19 5 135 5q129 0 143 -9q7 -4 7 -16q0 -16 -15 -20q-19 -5 -135 -5q-129 0 -143 9q-7 4 -7 16zM300 175q0 16 9.5 20.5t40.5 4.5t40.5 -4.5t9.5 -20.5t-9.5 -20.5t-40.5 -4.5t-40.5 4.5t-9.5 20.5zM0 175q0 16 9.5 20.5t40.5 4.5t40.5 -4.5t9.5 -20.5
t-9.5 -20.5t-40.5 -4.5t-40.5 4.5t-9.5 20.5zM300 275q0 16 9.5 20.5t40.5 4.5t40.5 -4.5t9.5 -20.5t-9.5 -20.5t-40.5 -4.5t-40.5 4.5t-9.5 20.5zM0 275q0 16 9.5 20.5t40.5 4.5t40.5 -4.5t9.5 -20.5t-9.5 -20.5t-40.5 -4.5t-40.5 4.5t-9.5 20.5zM300 375q0 16 9.5 20.5
t40.5 4.5t40.5 -4.5t9.5 -20.5t-9.5 -20.5t-40.5 -4.5t-40.5 4.5t-9.5 20.5zM0 375q0 16 9.5 20.5t40.5 4.5t40.5 -4.5t9.5 -20.5t-9.5 -20.5t-40.5 -4.5t-40.5 4.5t-9.5 20.5zM300 475q0 16 9.5 20.5t40.5 4.5t40.5 -4.5t9.5 -20.5t-9.5 -20.5t-40.5 -4.5t-40.5 4.5
t-9.5 20.5zM0 475q0 16 9.5 20.5t40.5 4.5t40.5 -4.5t9.5 -20.5t-9.5 -20.5t-40.5 -4.5t-40.5 4.5t-9.5 20.5zM50 575q0 16 15 20q19 5 135 5q129 0 143 -9q7 -4 7 -16q0 -16 -15 -20q-19 -5 -135 -5q-129 0 -143 9q-7 4 -7 16zM200 675q0 17 13 21t62 4t62 -4t13 -21
t-13 -21t-62 -4t-62 4t-13 21zM100 775q0 17 13 21t62 4t62 -4t13 -21t-13 -21t-62 -4t-62 4t-13 21z" />
    <glyph glyph-name="Oacute" unicode="&#xd3;" 
d="M50 75q0 16 15 20q19 5 135 5q129 0 143 -9q7 -4 7 -16q0 -16 -15 -20q-19 -5 -135 -5q-129 0 -143 9q-7 4 -7 16zM300 175q0 16 9.5 20.5t40.5 4.5t40.5 -4.5t9.5 -20.5t-9.5 -20.5t-40.5 -4.5t-40.5 4.5t-9.5 20.5zM0 175q0 16 9.5 20.5t40.5 4.5t40.5 -4.5t9.5 -20.5
t-9.5 -20.5t-40.5 -4.5t-40.5 4.5t-9.5 20.5zM300 275q0 16 9.5 20.5t40.5 4.5t40.5 -4.5t9.5 -20.5t-9.5 -20.5t-40.5 -4.5t-40.5 4.5t-9.5 20.5zM0 275q0 16 9.5 20.5t40.5 4.5t40.5 -4.5t9.5 -20.5t-9.5 -20.5t-40.5 -4.5t-40.5 4.5t-9.5 20.5zM300 375q0 16 9.5 20.5
t40.5 4.5t40.5 -4.5t9.5 -20.5t-9.5 -20.5t-40.5 -4.5t-40.5 4.5t-9.5 20.5zM0 375q0 16 9.5 20.5t40.5 4.5t40.5 -4.5t9.5 -20.5t-9.5 -20.5t-40.5 -4.5t-40.5 4.5t-9.5 20.5zM300 475q0 16 9.5 20.5t40.5 4.5t40.5 -4.5t9.5 -20.5t-9.5 -20.5t-40.5 -4.5t-40.5 4.5
t-9.5 20.5zM0 475q0 16 9.5 20.5t40.5 4.5t40.5 -4.5t9.5 -20.5t-9.5 -20.5t-40.5 -4.5t-40.5 4.5t-9.5 20.5zM50 575q0 16 15 20q19 5 135 5q129 0 143 -9q7 -4 7 -16q0 -16 -15 -20q-19 -5 -135 -5q-129 0 -143 9q-7 4 -7 16zM50 675q0 17 13 21t62 4t62 -4t13 -21
t-13 -21t-62 -4t-62 4t-13 21zM150 775q0 17 13 21t62 4t62 -4t13 -21t-13 -21t-62 -4t-62 4t-13 21z" />
    <glyph glyph-name="Ocircumflex" unicode="&#xd4;" 
d="M50 75q0 16 15 20q19 5 135 5q129 0 143 -9q7 -4 7 -16q0 -16 -15 -20q-19 -5 -135 -5q-129 0 -143 9q-7 4 -7 16zM300 175q0 16 9.5 20.5t40.5 4.5t40.5 -4.5t9.5 -20.5t-9.5 -20.5t-40.5 -4.5t-40.5 4.5t-9.5 20.5zM0 175q0 16 9.5 20.5t40.5 4.5t40.5 -4.5t9.5 -20.5
t-9.5 -20.5t-40.5 -4.5t-40.5 4.5t-9.5 20.5zM300 275q0 16 9.5 20.5t40.5 4.5t40.5 -4.5t9.5 -20.5t-9.5 -20.5t-40.5 -4.5t-40.5 4.5t-9.5 20.5zM0 275q0 16 9.5 20.5t40.5 4.5t40.5 -4.5t9.5 -20.5t-9.5 -20.5t-40.5 -4.5t-40.5 4.5t-9.5 20.5zM300 375q0 16 9.5 20.5
t40.5 4.5t40.5 -4.5t9.5 -20.5t-9.5 -20.5t-40.5 -4.5t-40.5 4.5t-9.5 20.5zM0 375q0 16 9.5 20.5t40.5 4.5t40.5 -4.5t9.5 -20.5t-9.5 -20.5t-40.5 -4.5t-40.5 4.5t-9.5 20.5zM300 475q0 16 9.5 20.5t40.5 4.5t40.5 -4.5t9.5 -20.5t-9.5 -20.5t-40.5 -4.5t-40.5 4.5
t-9.5 20.5zM0 475q0 16 9.5 20.5t40.5 4.5t40.5 -4.5t9.5 -20.5t-9.5 -20.5t-40.5 -4.5t-40.5 4.5t-9.5 20.5zM50 575q0 16 15 20q19 5 135 5q129 0 143 -9q7 -4 7 -16q0 -16 -15 -20q-19 -5 -135 -5q-129 0 -143 9q-7 4 -7 16zM250 675q0 16 9.5 20.5t40.5 4.5t40.5 -4.5
t9.5 -20.5t-9.5 -20.5t-40.5 -4.5t-40.5 4.5t-9.5 20.5zM50 675q0 16 9.5 20.5t40.5 4.5t40.5 -4.5t9.5 -20.5t-9.5 -20.5t-40.5 -4.5t-40.5 4.5t-9.5 20.5zM100 775q0 17 16 21t84 4t84 -4t16 -21t-16 -21t-84 -4t-84 4t-16 21z" />
    <glyph glyph-name="Otilde" unicode="&#xd5;" 
d="M50 75q0 16 15 20q19 5 135 5q129 0 143 -9q7 -4 7 -16q0 -16 -15 -20q-19 -5 -135 -5q-129 0 -143 9q-7 4 -7 16zM300 175q0 16 9.5 20.5t40.5 4.5t40.5 -4.5t9.5 -20.5t-9.5 -20.5t-40.5 -4.5t-40.5 4.5t-9.5 20.5zM0 175q0 16 9.5 20.5t40.5 4.5t40.5 -4.5t9.5 -20.5
t-9.5 -20.5t-40.5 -4.5t-40.5 4.5t-9.5 20.5zM300 275q0 16 9.5 20.5t40.5 4.5t40.5 -4.5t9.5 -20.5t-9.5 -20.5t-40.5 -4.5t-40.5 4.5t-9.5 20.5zM0 275q0 16 9.5 20.5t40.5 4.5t40.5 -4.5t9.5 -20.5t-9.5 -20.5t-40.5 -4.5t-40.5 4.5t-9.5 20.5zM300 375q0 16 9.5 20.5
t40.5 4.5t40.5 -4.5t9.5 -20.5t-9.5 -20.5t-40.5 -4.5t-40.5 4.5t-9.5 20.5zM0 375q0 16 9.5 20.5t40.5 4.5t40.5 -4.5t9.5 -20.5t-9.5 -20.5t-40.5 -4.5t-40.5 4.5t-9.5 20.5zM300 475q0 16 9.5 20.5t40.5 4.5t40.5 -4.5t9.5 -20.5t-9.5 -20.5t-40.5 -4.5t-40.5 4.5
t-9.5 20.5zM0 475q0 16 9.5 20.5t40.5 4.5t40.5 -4.5t9.5 -20.5t-9.5 -20.5t-40.5 -4.5t-40.5 4.5t-9.5 20.5zM50 575q0 16 15 20q19 5 135 5q129 0 143 -9q7 -4 7 -16q0 -16 -15 -20q-19 -5 -135 -5q-129 0 -143 9q-7 4 -7 16zM150 675q0 17 13 21t62 4t62 -4t13 -21
t-13 -21t-62 -4t-62 4t-13 21zM0 675q0 16 9.5 20.5t40.5 4.5t40.5 -4.5t9.5 -20.5t-9.5 -20.5t-40.5 -4.5t-40.5 4.5t-9.5 20.5zM250 775q0 16 9.5 20.5t40.5 4.5t40.5 -4.5t9.5 -20.5t-9.5 -20.5t-40.5 -4.5t-40.5 4.5t-9.5 20.5zM50 775q0 17 13 21t62 4t62 -4t13 -21
t-13 -21t-62 -4t-62 4t-13 21z" />
    <glyph glyph-name="Odieresis" unicode="&#xd6;" 
d="M50 75q0 16 15 20q19 5 135 5q129 0 143 -9q7 -4 7 -16q0 -16 -15 -20q-19 -5 -135 -5q-129 0 -143 9q-7 4 -7 16zM300 175q0 16 9.5 20.5t40.5 4.5t40.5 -4.5t9.5 -20.5t-9.5 -20.5t-40.5 -4.5t-40.5 4.5t-9.5 20.5zM0 175q0 16 9.5 20.5t40.5 4.5t40.5 -4.5t9.5 -20.5
t-9.5 -20.5t-40.5 -4.5t-40.5 4.5t-9.5 20.5zM300 275q0 16 9.5 20.5t40.5 4.5t40.5 -4.5t9.5 -20.5t-9.5 -20.5t-40.5 -4.5t-40.5 4.5t-9.5 20.5zM0 275q0 16 9.5 20.5t40.5 4.5t40.5 -4.5t9.5 -20.5t-9.5 -20.5t-40.5 -4.5t-40.5 4.5t-9.5 20.5zM300 375q0 16 9.5 20.5
t40.5 4.5t40.5 -4.5t9.5 -20.5t-9.5 -20.5t-40.5 -4.5t-40.5 4.5t-9.5 20.5zM0 375q0 16 9.5 20.5t40.5 4.5t40.5 -4.5t9.5 -20.5t-9.5 -20.5t-40.5 -4.5t-40.5 4.5t-9.5 20.5zM300 475q0 16 9.5 20.5t40.5 4.5t40.5 -4.5t9.5 -20.5t-9.5 -20.5t-40.5 -4.5t-40.5 4.5
t-9.5 20.5zM0 475q0 16 9.5 20.5t40.5 4.5t40.5 -4.5t9.5 -20.5t-9.5 -20.5t-40.5 -4.5t-40.5 4.5t-9.5 20.5zM50 575q0 16 15 20q19 5 135 5q129 0 143 -9q7 -4 7 -16q0 -16 -15 -20q-19 -5 -135 -5q-129 0 -143 9q-7 4 -7 16zM250 775q0 16 9.5 20.5t40.5 4.5t40.5 -4.5
t9.5 -20.5t-9.5 -20.5t-40.5 -4.5t-40.5 4.5t-9.5 20.5zM50 775q0 16 9.5 20.5t40.5 4.5t40.5 -4.5t9.5 -20.5t-9.5 -20.5t-40.5 -4.5t-40.5 4.5t-9.5 20.5z" />
    <glyph glyph-name="multiply" unicode="&#xd7;" 
d="M50 75q0 15 15 19q22 6 160 6q151 0 167 -9q8 -4 8 -16q0 -15 -15 -19q-22 -6 -160 -6q-151 0 -167 9q-8 4 -8 16zM150 175q0 16 9.5 20.5t40.5 4.5t40.5 -4.5t9.5 -20.5t-9.5 -20.5t-40.5 -4.5t-40.5 4.5t-9.5 20.5zM0 175q0 16 9.5 20.5t40.5 4.5t40.5 -4.5t9.5 -20.5
t-9.5 -20.5t-40.5 -4.5t-40.5 4.5t-9.5 20.5zM150 275q0 16 9.5 20.5t40.5 4.5t40.5 -4.5t9.5 -20.5t-9.5 -20.5t-40.5 -4.5t-40.5 4.5t-9.5 20.5zM0 275q0 16 9.5 20.5t40.5 4.5t40.5 -4.5t9.5 -20.5t-9.5 -20.5t-40.5 -4.5t-40.5 4.5t-9.5 20.5zM150 375q0 17 16 21t84 4
t84 -4t16 -21t-16 -21t-84 -4t-84 4t-16 21zM0 375q0 16 9.5 20.5t40.5 4.5t40.5 -4.5t9.5 -20.5t-9.5 -20.5t-40.5 -4.5t-40.5 4.5t-9.5 20.5zM150 475q0 16 9.5 20.5t40.5 4.5t40.5 -4.5t9.5 -20.5t-9.5 -20.5t-40.5 -4.5t-40.5 4.5t-9.5 20.5zM0 475q0 16 9.5 20.5
t40.5 4.5t40.5 -4.5t9.5 -20.5t-9.5 -20.5t-40.5 -4.5t-40.5 4.5t-9.5 20.5zM150 575q0 16 9.5 20.5t40.5 4.5t40.5 -4.5t9.5 -20.5t-9.5 -20.5t-40.5 -4.5t-40.5 4.5t-9.5 20.5zM0 575q0 16 9.5 20.5t40.5 4.5t40.5 -4.5t9.5 -20.5t-9.5 -20.5t-40.5 -4.5t-40.5 4.5
t-9.5 20.5zM50 675q0 15 15 19q22 6 160 6q151 0 167 -9q8 -4 8 -16q0 -15 -15 -19q-22 -6 -160 -6q-151 0 -167 9q-8 4 -8 16z" />
    <glyph glyph-name="Oslash" unicode="&#xd8;" 
d="M0 -25q0 16 9.5 20.5t40.5 4.5t40.5 -4.5t9.5 -20.5t-9.5 -20.5t-40.5 -4.5t-40.5 4.5t-9.5 20.5zM50 75q0 16 15 20q19 5 135 5q129 0 143 -9q7 -4 7 -16q0 -16 -15 -20q-19 -5 -135 -5q-129 0 -143 9q-7 4 -7 16zM300 175q0 16 9.5 20.5t40.5 4.5t40.5 -4.5t9.5 -20.5
t-9.5 -20.5t-40.5 -4.5t-40.5 4.5t-9.5 20.5zM0 175q0 17 13 21t62 4t62 -4t13 -21t-13 -21t-62 -4t-62 4t-13 21zM300 275q0 16 9.5 20.5t40.5 4.5t40.5 -4.5t9.5 -20.5t-9.5 -20.5t-40.5 -4.5t-40.5 4.5t-9.5 20.5zM0 275q0 17 16 21t84 4t84 -4t16 -21t-16 -21t-84 -4
t-84 4t-16 21zM300 375q0 16 9.5 20.5t40.5 4.5t40.5 -4.5t9.5 -20.5t-9.5 -20.5t-40.5 -4.5t-40.5 4.5t-9.5 20.5zM150 375q0 16 9.5 20.5t40.5 4.5t40.5 -4.5t9.5 -20.5t-9.5 -20.5t-40.5 -4.5t-40.5 4.5t-9.5 20.5zM0 375q0 16 9.5 20.5t40.5 4.5t40.5 -4.5t9.5 -20.5
t-9.5 -20.5t-40.5 -4.5t-40.5 4.5t-9.5 20.5zM200 475q0 17 16 21t84 4t84 -4t16 -21t-16 -21t-84 -4t-84 4t-16 21zM0 475q0 16 9.5 20.5t40.5 4.5t40.5 -4.5t9.5 -20.5t-9.5 -20.5t-40.5 -4.5t-40.5 4.5t-9.5 20.5zM250 575q0 17 13 21t62 4q50 0 62.5 -4t12.5 -21
t-12.5 -21t-62.5 -4q-49 0 -62 4t-13 21zM0 575q0 16 9.5 20.5t40.5 4.5t40.5 -4.5t9.5 -20.5t-9.5 -20.5t-40.5 -4.5t-40.5 4.5t-9.5 20.5zM50 675q0 16 15 20q19 5 135 5q129 0 143 -9q7 -4 7 -16q0 -16 -15 -20q-19 -5 -135 -5q-129 0 -143 9q-7 4 -7 16zM300 775
q0 16 9.5 20.5t40.5 4.5t40.5 -4.5t9.5 -20.5t-9.5 -20.5t-40.5 -4.5t-40.5 4.5t-9.5 20.5z" />
    <glyph glyph-name="Ugrave" unicode="&#xd9;" 
d="M50 75q0 16 15 20q19 5 135 5q129 0 143 -9q7 -4 7 -16q0 -16 -15 -20q-19 -5 -135 -5q-129 0 -143 9q-7 4 -7 16zM300 175q0 16 9.5 20.5t40.5 4.5t40.5 -4.5t9.5 -20.5t-9.5 -20.5t-40.5 -4.5t-40.5 4.5t-9.5 20.5zM0 175q0 16 9.5 20.5t40.5 4.5t40.5 -4.5t9.5 -20.5
t-9.5 -20.5t-40.5 -4.5t-40.5 4.5t-9.5 20.5zM300 275q0 16 9.5 20.5t40.5 4.5t40.5 -4.5t9.5 -20.5t-9.5 -20.5t-40.5 -4.5t-40.5 4.5t-9.5 20.5zM0 275q0 16 9.5 20.5t40.5 4.5t40.5 -4.5t9.5 -20.5t-9.5 -20.5t-40.5 -4.5t-40.5 4.5t-9.5 20.5zM300 375q0 16 9.5 20.5
t40.5 4.5t40.5 -4.5t9.5 -20.5t-9.5 -20.5t-40.5 -4.5t-40.5 4.5t-9.5 20.5zM0 375q0 16 9.5 20.5t40.5 4.5t40.5 -4.5t9.5 -20.5t-9.5 -20.5t-40.5 -4.5t-40.5 4.5t-9.5 20.5zM300 475q0 16 9.5 20.5t40.5 4.5t40.5 -4.5t9.5 -20.5t-9.5 -20.5t-40.5 -4.5t-40.5 4.5
t-9.5 20.5zM0 475q0 16 9.5 20.5t40.5 4.5t40.5 -4.5t9.5 -20.5t-9.5 -20.5t-40.5 -4.5t-40.5 4.5t-9.5 20.5zM300 575q0 16 9.5 20.5t40.5 4.5t40.5 -4.5t9.5 -20.5t-9.5 -20.5t-40.5 -4.5t-40.5 4.5t-9.5 20.5zM0 575q0 16 9.5 20.5t40.5 4.5t40.5 -4.5t9.5 -20.5
t-9.5 -20.5t-40.5 -4.5t-40.5 4.5t-9.5 20.5zM150 675q0 17 13 21t62 4t62 -4t13 -21t-13 -21t-62 -4t-62 4t-13 21zM50 775q0 17 13 21t62 4t62 -4t13 -21t-13 -21t-62 -4t-62 4t-13 21z" />
    </font>
</defs>
</svg>
